National Geographic - Medieval FightBook (2010)

Posted By: Tutorial
National Geographic - Medieval FightBook (2010)

National Geographic - Medieval FightBook (2010)
DVB-Rip | 720 x 416 | .AVI/XviD @ 2043 Kbps | 44mn 59s | English MP3 128 Kbps, 2 channels | 701 MB
Genre: Documentary

Hidden in a dusty library locked in a secure vault this obscure and strange manuscript has the power to unlock lost secrets from a medieval world. Contained within the beautifully illustrated 150 paper folios is unique imagery of bloody but highly sophisticated combat, weird futuristic designs and inventions, ingenious engineering and judicial duels. Hans Talhoffer’s 1459 Fightbook is one of medieval worlds’ most mysterious manuscripts, challenging the legends and myths that surrounded this so often misunderstood period of our history. Violent, secretive, spiritual and packed full of knowledge, an obscure and mysterious manuscript called the Fight Book realistically depicts the bloody side of Europe in the Middle Ages. Through historical re-creations, CGI and leading historians, we reveal the surprising detail that proves medieval society was far more refined and peculiar than we realize.

General
Complete name : Medieval.FightBook.avi
Format : AVI
Format/Info : Audio Video Interleave
File size : 701 MiB
Duration : 44mn 59s
Overall bit rate : 2 178 Kbps
Writing application : VirtualDubMod 1.5.4.1 (build 2178/release)
Writing library : VirtualDubMod build 2178/release

Video
ID : 0
Format : MPEG-4 Visual
Format profile : Advanced Simple@L5
Format settings, BVOP : No
Format settings, QPel : No
Format settings, GMC : No warppoints
Format settings, Matrix : Custom
Codec ID : XVID
Codec ID/Hint : XviD
Duration : 44mn 59s
Bit rate : 2 043 Kbps
Width : 720 pixels
Height : 416 pixels
Display aspect ratio : 16:9
Frame rate : 25.000 fps
Color space : YUV
Chroma subsampling : 4:2:0
Bit depth : 8 bits
Scan type : Progressive
Compression mode : Lossy
Bits/(Pixel*Frame) : 0.273
Stream size : 657 MiB (94%)
Writing library : XviD 1.2.1 (UTC 2008-12-04)

Audio
ID : 1
Format : MPEG Audio
Format version : Version 1
Format profile : Layer 3
Mode : Joint stereo
Mode extension : MS Stereo
Codec ID : 55
Codec ID/Hint : MP3
Duration : 44mn 59s
Bit rate mode : Constant
Bit rate : 128 Kbps
Channel(s) : 2 channels
Sampling rate : 48.0 KHz
Compression mode : Lossy
Stream size : 41.2 MiB (6%)
Alignment : Aligned on interleaves
Interleave, duration : 80 ms (2.00 video frames)
Interleave, preload duration : 504 ms
Writing library : LAME3.98r
Encoding settings : -m j -V 4 -q 2 -lowpass 17 -b 128
Screenshots

National Geographic - Medieval FightBook (2010)

National Geographic - Medieval FightBook (2010)

National Geographic - Medieval FightBook (2010)

National Geographic - Medieval FightBook (2010)

Welcome to my blog - daily update!

National Geographic - Medieval FightBook (2010)