Michelle Wolf: Nice Lady (2017)

Posted By: Tavaz
1080p (FullHD) / WEB-DL
Michelle Wolf: Nice Lady (2017)

Michelle Wolf: Nice Lady (2017)
WEB-DL | MKV | 1920x1080 | English | H264 @ 13047 kbps | E-AC-3 @ 640 kbps | 57 min 28 s | 5.61 GiB
Subtitles: English
Genre: Reality-TV

Comedian Michelle Wolf (The Daily Show with Trevor Noah) stars in her first HBO special — an hour of stand-up featuring her observations on feminism, dating, and other social issues.

Michelle.Wolf.Nice.Lady.2017.1080p.AMZN.WEB-DL.DDP5.1.H.264-monkee.mkv (5.6 GB)



General
Unique ID : 249211485680868820440486772433600980496 (0xBB7C62E2F88F27F39D71F39F379D2610)
Complete name : ./Michelle.Wolf.Nice.Lady.2017.1080p.AMZN.WEB-DL.DDP5.1.H.264-monkee.mkv
Format : Matroska
Format version : Version 4 / Version 2
File size : 5.61 GiB
Duration : 57 min 28 s
Overall bit rate mode : Variable
Overall bit rate : 14.0 Mb/s
Writing application : mkvmerge v12.0.0 ('Trust / Lust') 64bit
Writing library : libebml v1.3.4 + libmatroska v1.4.5

Video
ID : 1
Format : AVC
Format/Info : Advanced Video Codec
Format profile : High@L4
Format settings : CABAC / 4 Ref Frames
Format settings, CABAC : Yes
Format settings, RefFrames : 4 frames
Codec ID : V_MPEG4/ISO/AVC
Duration : 57 min 28 s
Bit rate mode : Variable
Bit rate : 13.0 Mb/s
Maximum bit rate : 15.0 Mb/s
Width : 1 920 pixels
Height : 1 080 pixels
Display aspect ratio : 16:9
Frame rate mode : Constant
Frame rate : 23.976 (24000/1001) FPS
Color space : YUV
Chroma subsampling : 4:2:0
Bit depth : 8 bits
Scan type : Progressive
Bits/(Pixel*Frame) : 0.262
Stream size : 5.24 GiB (93%)
Default : Yes
Forced : No
Color range : Limited
Color primaries : BT.709
Transfer characteristics : BT.709
Matrix coefficients : BT.709
Statistics Tags Issue : mkvmerge v12.0.0 ('Trust / Lust') 64bit 2017-12-03 02:22:54 / mkvmerge v12.0.0 ('Trust / Lust') 64bit
FromStats_BitRate : 14681822
FromStats_Duration : 00:52:09.627000000
FromStats_FrameCount : 75036
FromStats_StreamSize : 5743578484

Audio
ID : 2
Format : E-AC-3
Format/Info : Enhanced Audio Coding 3
Format settings, Endianness : Big
Codec ID : A_EAC3
Duration : 57 min 28 s
Bit rate mode : Constant
Bit rate : 640 kb/s
Channel(s) : 6 channels
Channel positions : Front: L C R, Side: L R, LFE
Sampling rate : 48.0 kHz
Frame rate : 187.500 FPS (256 SPF)
Compression mode : Lossy
Delay relative to video : 15 ms
Stream size : 263 MiB (5%)
Language : English
Service kind : Complete Main
Default : Yes
Forced : No
Statistics Tags Issue : mkvmerge v12.0.0 ('Trust / Lust') 64bit 2017-12-03 02:22:54 / mkvmerge v12.0.0 ('Trust / Lust') 64bit
FromStats_BitRate : 640000
FromStats_Duration : 00:57:28.640000000
FromStats_FrameCount : 107770
FromStats_StreamSize : 275891200

Text
ID : 3
Format : UTF-8
Codec ID : S_TEXT/UTF8
Codec ID/Info : UTF-8 Plain Text
Language : English
Default : No
Forced : No
Statistics Tags Issue : mkvmerge v12.0.0 ('Trust / Lust') 64bit 2017-12-03 02:22:54 / mkvmerge v12.0.0 ('Trust / Lust') 64bit
FromStats_BitRate : 98
FromStats_Duration : 00:57:06.124000000
FromStats_FrameCount : 1142
FromStats_StreamSize : 42002





Michelle Wolf: Nice Lady (2017)


Michelle Wolf: Nice Lady (2017)


Michelle Wolf: Nice Lady (2017)


Michelle Wolf: Nice Lady (2017)