Subcategories

Miley Cyrus: Twerk It (2013)

Posted By: JohnSmith
Miley Cyrus: Twerk It (2013)

Miley Cyrus: Twerk It (2013)
WEB-DL 1080p | MKV / AVC@10.1 Mb/s | 1920x1080 | 57mn | 4.13 GB
English: AC3, 224 kb/s (6 ch) | Subtitles: English
Genre: Music

She is the most tweeted about person in history, millions of views on YouTube, more than 390 thousands tweets every minute, Miley Cyrus is the woman everyone is talking about. Love her or hate her, the former Hannah Montana star is creating her own space in the world. Watch how it all began from her first TV appearance when she was 2 years old to the controversial VMA performance. Discover the girl, the teenager and the woman who set the world on fire.




General
Unique ID : 208527959497099541062359062232922538960 (0x9CE1062E48CBBE4184E13D1C3AF343D0)
Complete name : D:\Downloads\Miley Cyrus - Twerk It (2014) 1080p WEB-DL DD+ 2.0 x264-TrollHD.mkv
Format : Matroska
Format version : Version 4 / Version 2
File size : 4.13 GiB
Duration : 57 min 6 s
Overall bit rate mode : Variable
Overall bit rate : 10.4 Mb/s
Encoded date : UTC 2016-08-26 06:36:05
Writing application : mkvmerge v8.3.0 ('Over the Horizon') 64bit
Writing library : libebml v1.3.1 + libmatroska v1.4.2

Video
ID : 2
Format : AVC
Format/Info : Advanced Video Codec
Format profile : High@L4
Format settings, CABAC : Yes
Format settings, ReFrames : 4 frames
Codec ID : V_MPEG4/ISO/AVC
Duration : 57 min 6 s
Bit rate mode : Variable
Bit rate : 10.1 Mb/s
Maximum bit rate : 15.0 Mb/s
Width : 1 920 pixels
Height : 1 080 pixels
Display aspect ratio : 16:9
Frame rate mode : Constant
Frame rate : 23.976 (24000/1001) FPS
Color space : YUV
Chroma subsampling : 4:2:0
Bit depth : 8 bits
Scan type : Progressive
Bits/(Pixel*Frame) : 0.204
Stream size : 4.04 GiB (98%)
Writing library : x264 core 148 r2623 d5b2374
Encoding settings : cabac=1 / ref=4 / deblock=1:-1:-1 / analyse=0x3:0x133 / me=umh / subme=9 / psy=1 / psy_rd=1.00:0.15 / mixed_ref=1 / me_range=24 / chroma_me=1 / trellis=2 / 8x8dct=1 / cqm=0 / deadzone=21,11 / fast_pskip=1 / chroma_qp_offset=-3 / threads=34 / lookahead_threads=5 / sliced_threads=0 / nr=150 / decimate=1 / interlaced=0 / bluray_compat=0 / constrained_intra=0 / bframes=8 / b_pyramid=2 / b_adapt=2 / b_bias=0 / direct=3 / weightb=1 / open_gop=0 / weightp=2 / keyint=120 / keyint_min=61 / scenecut=0 / intra_refresh=0 / rc_lookahead=120 / rc=crf / mbtree=1 / crf=18.0 / qcomp=0.60 / qpmin=0 / qpmax=69 / qpstep=4 / vbv_maxrate=15000 / vbv_bufsize=31250 / crf_max=0.0 / nal_hrd=vbr / filler=0 / ip_ratio=1.40 / aq=3:1.00
Default : Yes
Forced : No
Color range : Limited
Color primaries : BT.709
Transfer characteristics : BT.709
Matrix coefficients : BT.709

Audio
ID : 1
Format : E-AC-3
Format/Info : Enhanced Audio Coding 3
Format settings, Endianness : Big
Codec ID : A_EAC3
Duration : 57 min 6 s
Bit rate mode : Constant
Bit rate : 224 kb/s
Channel(s) : 2 channels
Channel positions : Front: L R
Sampling rate : 48.0 kHz
Frame rate : 187.500 FPS (256 spf)
Compression mode : Lossy
Stream size : 91.5 MiB (2%)
Language : English
Service kind : Complete Main
Default : Yes
Forced : No

Text
ID : 3
Format : UTF-8
Codec ID : S_TEXT/UTF8
Codec ID/Info : UTF-8 Plain Text
Duration : 57 min 1 s
Bit rate : 117 b/s
Count of elements : 1370
Stream size : 48.9 KiB (0%)
Default : Yes
Forced : No




Screenshots

Miley Cyrus: Twerk It (2013)

Miley Cyrus: Twerk It (2013)

Miley Cyrus: Twerk It (2013)