Military Channel - Top Tens: Fighting Ships (2005)

Posted By: Polik88
Military Channel - Top Tens: Fighting Ships (2005)

Military Channel - Top Tens: Fighting Ships (2005)
PDTV | English | AVI/XVID 23.976 fps 1199 Kbps | 544x400 | MP3 128 Kbps 48.0 khz | 44mn 33s | 426MB
Genre: Documentary

Top Ten Fighting Ships From the sea-going behemoth the Bismarck to the brand-new stealth corvette HMS Visby, each of these warships that have helped shape military history is scrutinized and ranked.
General
Complete name : Military Channel - Top Tens - Fighting Ships.avi
Format : AVI
Format/Info : Audio Video Interleave
File size : 426 MiB
Duration : 44mn 33s
Overall bit rate : 1 336 Kbps
Writing library : VirtualDub build 0/release

Video
ID : 0
Format : MPEG-4 Visual
Format profile : Advanced Simple@L5
Format settings, BVOP : Yes
Format settings, QPel : No
Format settings, GMC : No warppoints
Format settings, Matrix : Default (MPEG)
Muxing mode : Packed bitstream
Codec ID : XVID
Codec ID/Hint : XviD
Duration : 44mn 33s
Bit rate : 1 199 Kbps
Width : 544 pixels
Height : 400 pixels
Display aspect ratio : 4:3
Frame rate : 23.976 fps
Resolution : 8 bits
Colorimetry : 4:2:0
Scan type : Progressive
Bits/(Pixel*Frame) : 0.230
Stream size : 382 MiB (90%)
Writing library : XviD 1.2.0.dev47 (UTC 2006-11-01)

Audio
ID : 1
Format : MPEG Audio
Format version : Version 1
Format profile : Layer 3
Mode : Joint stereo
Format_Settings_ModeExtension : MS Stereo
Codec ID : 55
Codec ID/Hint : MP3
Duration : 44mn 33s
Bit rate mode : Constant
Bit rate : 128 Kbps
Channel(s) : 2 channels
Sampling rate : 48.0 KHz
Stream size : 40.8 MiB (10%)
Alignment : Aligned on interleaves
Interleave, duration : 42 ms (1.00 video frame)
Interleave, preload duration : 480 ms
Writing library : LAME3.97
Encoding settings : -m j -V 4 -q 2 -lowpass 17 -b 128

Screenshots

Military Channel - Top Tens: Fighting Ships (2005)

Military Channel - Top Tens: Fighting Ships (2005)

Military Channel - Top Tens: Fighting Ships (2005)

no mirrors please, Follow The Rules
Visit Polik88 Blog Here
no password