BBC - Millionaires' Ex-Wives Club (2018)

Posted By: notbanned
720p (HD) / WEBRip
BBC - Millionaires' Ex-Wives Club (2018)

BBC - Millionaires' Ex-Wives Club (2018)
WEBRip | 1280x720 | .MKV/AVC @ 2276 Kbps | 59 min 33 s | 1010 MiB
Audio: English AAC 93.4 kbps, 2 channels | Subs: English
Genre: Documentary

A look inside the world of super rich divorce when the mansions, the Rolls and the super yacht have to be split - and hundreds of millions of pounds are at stake.

General
Unique ID : 36561069852992739297339990711733250842 (0x1B8167EA8FB0914C9AC05F305AAEEB1A)
Complete name : Millionaires.Ex-Wives.Club.720p.mkv
Format : Matroska
Format version : Version 4 / Version 2
File size : 1 010 MiB
Duration : 59 min 33 s
Overall bit rate mode : Variable
Overall bit rate : 2 372 kb/s

Video
ID : 2
Format : AVC
Format/Info : Advanced Video Codec
Format profile : High@L4.1
Format settings, CABAC : Yes
Format settings, ReFrames : 2 frames
Codec ID : V_MPEG4/ISO/AVC
Duration : 59 min 33 s
Bit rate mode : Variable
Bit rate : 2 276 kb/s
Maximum bit rate : 3 500 kb/s
Width : 1 280 pixels
Height : 720 pixels
Display aspect ratio : 16:9
Frame rate mode : Constant
Frame rate : 25.000 FPS
Color space : YUV
Chroma subsampling : 4:2:0
Bit depth : 8 bits
Scan type : Progressive
Bits/(Pixel*Frame) : 0.099
Stream size : 969 MiB (96%)
Language : English
Default : Yes
Forced : No

Audio
ID : 3
Format : AAC
Format/Info : Advanced Audio Codec
Format profile : LC
Codec ID : A_AAC
Duration : 59 min 32 s
Bit rate : 93.4 kb/s
Channel(s) : 2 channels
Channel positions : Front: L R
Sampling rate : 48.0 kHz
Frame rate : 46.875 FPS (1024 spf)
Compression mode : Lossy
Delay relative to video : -40 ms
Stream size : 39.8 MiB (4%)
Language : English
Default : Yes
Forced : No

Text
ID : 1
Format : UTF-8
Codec ID : S_TEXT/UTF8
Codec ID/Info : UTF-8 Plain Text
Duration : 59 min 29 s
Bit rate : 190 b/s
Count of elements : 917
Stream size : 82.8 KiB (0%)
Language : English
Default : Yes
Forced : No


Screenshots:

BBC - Millionaires' Ex-Wives Club (2018)

BBC - Millionaires' Ex-Wives Club (2018)

BBC - Millionaires' Ex-Wives Club (2018)

BBC - Millionaires' Ex-Wives Club (2018)