Tags
Language
Tags

Frivolous Lola / Monella (1998)

Posted By: RSU75
1080p (FullHD) / BDRip IMDb
Frivolous Lola / Monella (1998)

Frivolous Lola / Monella (1998)
BDRip 1080p | MKV | AVC 1920x1080, ~ 4.1 Mbps | 1hr 44mn | 3.65 GB
English: AC3, 2 ch, 448 kbps \ Italian (Italiano): AC3, 2 ch, 448 kbps
BDRip 720p | MKV | AVC 1280x720, ~ 3.0 Mbps | 1hr 44mn | 2.85 GB
English: AC3, 2 ch, 448 kbps \ Italian (Italiano): AC3, 2 ch, 448 kbps
Subtitles: English
Genre: Comedy, Romance



Director: Tinto Brass
Writer: Tinto Brass (story), Carla Cipriani (story)
Stars: Anna Ammirati, Patrick Mower, Max Parodi

In verdant 1950s rural Italy, the seductively charming bride-to-be, Lola, has no intention of walking down the aisle as a spotless virgin. On the other hand, her traditional bread-baker fiancé, Masetto, has other plans, insisting on deflowering his beloved chosen one not earlier than the night of their wedding. However, Lola is impatient, and above all, unsatisfied–and under those circumstances–she never misses an opportunity to flaunt her smooth, well-rounded derrière, while riding her bicycle. Now, wild curiosity turns into bottled-up sexuality, inflaming Lola's fervent desires. Without a doubt, the untamed Lola knows what she wants, and she wants it now. Can Masetto stop her?

Extras:
- English and Italian audio
- Newly translated English subtitles for the Italian audio




General
Unique ID : 178523651647667780620326928581260616853 (0x864E6797130129C2A7F8101B49A62495)
Complete name : F:\Monella.1998.1p\Monella.1998.1p.mkv
Format : Matroska
Format version : Version 4
File size : 3.65 GiB
Duration : 1 h 44 min
Overall bit rate : 4 993 kb/s
Movie name : Release RSU75
Encoded date : UTC 2020-11-15 18:48:45
Writing application : mkvmerge v6.6.0 ('The Edge Of The In Between') built on Dec 1 2013 17:55:00
Writing library : libebml v1.3.0 + libmatroska v1.4.1

Video
ID : 1
Format : AVC
Format/Info : Advanced Video Codec
Format profile : High@L4.1
Format settings : CABAC / 4 Ref Frames
Format settings, CABAC : Yes
Format settings, Reference fra : 4 frames
Codec ID : V_MPEG4/ISO/AVC
Duration : 1 h 44 min
Bit rate : 4 100 kb/s
Width : 1 920 pixels
Height : 1 080 pixels
Display aspect ratio : 16:9
Frame rate mode : Constant
Frame rate : 23.976 (23976/1000) FPS
Color space : YUV
Chroma subsampling : 4:2:0
Bit depth : 8 bits
Scan type : Progressive
Bits/(Pixel*Frame) : 0.082
Stream size : 2.92 GiB (80%)
Writing library : x264 core 148 r2643 5c65704
Encoding settings : cabac=1 / ref=4 / deblock=1:0:0 / analyse=0x3:0x113 / me=umh / subme=8 / psy=1 / psy_rd=1.00:0.00 / mixed_ref=1 / me_range=24 / chroma_me=1 / trellis=1 / 8x8dct=1 / cqm=0 / deadzone=21,11 / fast_pskip=1 / chroma_qp_offset=-2 / threads=3 / lookahead_threads=1 / sliced_threads=0 / nr=0 / decimate=1 / interlaced=0 / bluray_compat=0 / constrained_intra=0 / bframes=3 / b_pyramid=0 / b_adapt=2 / b_bias=0 / direct=3 / weightb=1 / open_gop=0 / weightp=2 / keyint=250 / keyint_min=25 / scenecut=40 / intra_refresh=0 / rc_lookahead=40 / rc=abr / mbtree=1 / bitrate=4100 / ratetol=1.0 / qcomp=0.60 / qpmin=10 / qpmax=51 / qpstep=4 / ip_ratio=1.41 / aq=1:1.00
Language : English
Default : Yes
Forced : No
Duration_Source : General_Duration

Audio #1
ID : 2
Format : AC-3
Format/Info : Audio Coding 3
Commercial name : Dolby Digital
Codec ID : A_AC3
Duration : 1 h 44 min
Bit rate mode : Constant
Bit rate : 448 kb/s
Channel(s) : 2 channels
Channel layout : L R
Sampling rate : 44.1 kHz
Frame rate : 28.711 FPS (1536 SPF)
Compression mode : Lossy
Stream size : 335 MiB (9%)
Title : Stereo
Language : English
Service kind : Complete Main
Default : Yes
Forced : No
Duration_Source : General_Duration

Audio #2
ID : 3
Format : AC-3
Format/Info : Audio Coding 3
Commercial name : Dolby Digital
Codec ID : A_AC3
Duration : 1 h 44 min
Bit rate mode : Constant
Bit rate : 448 kb/s
Channel(s) : 2 channels
Channel layout : L R
Sampling rate : 44.1 kHz
Frame rate : 28.711 FPS (1536 SPF)
Compression mode : Lossy
Stream size : 335 MiB (9%)
Title : Stereo
Language : Italian
Service kind : Complete Main
Default : No
Forced : No
Duration_Source : General_Duration

Text #1
ID : 4
Format : PGS
Muxing mode : zlib
Codec ID : S_HDMV/PGS
Codec ID/Info : Picture based subtitle format used on BDs/HD-DVDs
Language : English
Default : No
Forced : No

Text #2
ID : 5
Format : PGS
Muxing mode : zlib
Codec ID : S_HDMV/PGS
Codec ID/Info : Picture based subtitle format used on BDs/HD-DVDs
Language : English
Default : No
Forced : No

Menu
00:00:00.000 : en:Chapter 01
00:07:42.837 : en:Chapter 02
00:14:05.636 : en:Chapter 03
00:22:03.530 : en:Chapter 04
00:33:05.024 : en:Chapter 05
00:43:24.226 : en:Chapter 06
00:51:34.758 : en:Chapter 07
00:59:44.497 : en:Chapter 08
01:11:39.503 : en:Chapter 09
01:21:57.078 : en:Chapter 10
01:31:32.695 : en:Chapter 11
01:42:51.790 : en:Chapter 12





General
Unique ID : 252538505524051609390284315033671167997 (0xBDFD25A122432C6A877B5A4A1A3DEFFD)
Complete name : F:\Monella.1998.7p\Monella.1998.7p.mkv
Format : Matroska
Format version : Version 4
File size : 2.85 GiB
Duration : 1 h 44 min
Overall bit rate : 3 898 kb/s
Movie name : Release RSU75
Encoded date : UTC 2020-11-15 17:56:00
Writing application : mkvmerge v6.6.0 ('The Edge Of The In Between') built on Dec 1 2013 17:55:00
Writing library : libebml v1.3.0 + libmatroska v1.4.1

Video
ID : 1
Format : AVC
Format/Info : Advanced Video Codec
Format profile : High@L4.1
Format settings : CABAC / 4 Ref Frames
Format settings, CABAC : Yes
Format settings, Reference fra : 4 frames
Codec ID : V_MPEG4/ISO/AVC
Duration : 1 h 44 min
Bit rate : 3 000 kb/s
Width : 1 280 pixels
Height : 720 pixels
Display aspect ratio : 16:9
Frame rate mode : Constant
Frame rate : 23.976 (23976/1000) FPS
Color space : YUV
Chroma subsampling : 4:2:0
Bit depth : 8 bits
Scan type : Progressive
Bits/(Pixel*Frame) : 0.136
Stream size : 2.14 GiB (75%)
Writing library : x264 core 148 r2643 5c65704
Encoding settings : cabac=1 / ref=4 / deblock=1:0:0 / analyse=0x3:0x113 / me=umh / subme=8 / psy=1 / psy_rd=1.00:0.00 / mixed_ref=1 / me_range=24 / chroma_me=1 / trellis=1 / 8x8dct=1 / cqm=0 / deadzone=21,11 / fast_pskip=1 / chroma_qp_offset=-2 / threads=3 / lookahead_threads=1 / sliced_threads=0 / nr=0 / decimate=1 / interlaced=0 / bluray_compat=0 / constrained_intra=0 / bframes=3 / b_pyramid=0 / b_adapt=2 / b_bias=0 / direct=3 / weightb=1 / open_gop=0 / weightp=2 / keyint=250 / keyint_min=25 / scenecut=40 / intra_refresh=0 / rc_lookahead=40 / rc=abr / mbtree=1 / bitrate=3000 / ratetol=1.0 / qcomp=0.60 / qpmin=10 / qpmax=51 / qpstep=4 / ip_ratio=1.41 / aq=1:1.00
Language : English
Default : Yes
Forced : No
Duration_Source : General_Duration

Audio #1
ID : 2
Format : AC-3
Format/Info : Audio Coding 3
Commercial name : Dolby Digital
Codec ID : A_AC3
Duration : 1 h 44 min
Bit rate mode : Constant
Bit rate : 448 kb/s
Channel(s) : 2 channels
Channel layout : L R
Sampling rate : 44.1 kHz
Frame rate : 28.711 FPS (1536 SPF)
Compression mode : Lossy
Stream size : 335 MiB (11%)
Title : Stereo
Language : English
Service kind : Complete Main
Default : Yes
Forced : No
Duration_Source : General_Duration

Audio #2
ID : 3
Format : AC-3
Format/Info : Audio Coding 3
Commercial name : Dolby Digital
Codec ID : A_AC3
Duration : 1 h 44 min
Bit rate mode : Constant
Bit rate : 448 kb/s
Channel(s) : 2 channels
Channel layout : L R
Sampling rate : 44.1 kHz
Frame rate : 28.711 FPS (1536 SPF)
Compression mode : Lossy
Stream size : 335 MiB (11%)
Title : Stereo
Language : Italian
Service kind : Complete Main
Default : No
Forced : No
Duration_Source : General_Duration

Text #1
ID : 4
Format : PGS
Muxing mode : zlib
Codec ID : S_HDMV/PGS
Codec ID/Info : Picture based subtitle format used on BDs/HD-DVDs
Language : English
Default : No
Forced : No

Text #2
ID : 5
Format : PGS
Muxing mode : zlib
Codec ID : S_HDMV/PGS
Codec ID/Info : Picture based subtitle format used on BDs/HD-DVDs
Language : English
Default : No
Forced : No

Menu
00:00:00.000 : en:Chapter 01
00:07:42.837 : en:Chapter 02
00:14:05.636 : en:Chapter 03
00:22:03.530 : en:Chapter 04
00:33:05.024 : en:Chapter 05
00:43:24.226 : en:Chapter 06
00:51:34.758 : en:Chapter 07
00:59:44.497 : en:Chapter 08
01:11:39.503 : en:Chapter 09
01:21:57.078 : en:Chapter 10
01:31:32.695 : en:Chapter 11
01:42:51.790 : en:Chapter 12




Screenshots 1080p (click to enlarge to original size):

Frivolous Lola / Monella (1998)

Frivolous Lola / Monella (1998)

Frivolous Lola / Monella (1998)



Screenshots 720p (click to enlarge to original size):

Frivolous Lola / Monella (1998)





More in My Blog



If you like this release please visit my blog
In it you will find BDRip releases in different languages