Monty Python and the Holy Grail (1975)

Posted By: Tavaz
1080p (FullHD) / BDRip IMDb
Monty Python and the Holy Grail (1975)

Monty Python and the Holy Grail (1975)
BDRip | MKV | 1800x1080 | English | H265 @ 2622 kbps | AC-3 @ 448 kbps | 1 h 32 min | 1.99 GiB
Subtitles: English
Genre: Adventure, Comedy, Fantasy

King Arthur and his knights embark on a low-budget search for the Grail, encountering many, very silly obstacles.

7e4c60c63a3c44c0a12c96b9c3c47f2e.mkv (2.0 GB)



General
Unique ID : 177336776148898572176379658017658307370 (0x8569D21C305111ACB5D9549C02E7032A)
Complete name : ./7e4c60c63a3c44c0a12c96b9c3c47f2e.mkv
Format : Matroska
Format version : Version 2
File size : 1.99 GiB
Duration : 1 h 32 min
Overall bit rate : 3 097 kb/s
Movie name : Monty Python and The Holy Grail 1975 40th AnnvEd BluRay 10Bit 1080p DD5.1 H265-d3g
Encoded date : UTC 2017-12-22 00:19:23
Writing application : DVDFab 10.0.6.6
Writing library : libebml v1.3.4 + libmatroska v1.4.5

Video
ID : 1
Format : HEVC
Format/Info : High Efficiency Video Coding
Format profile : Main 10@L4@High
Codec ID : V_MPEGH/ISO/HEVC
Duration : 1 h 32 min
Bit rate : 2 622 kb/s
Width : 1 800 pixels
Height : 1 080 pixels
Display aspect ratio : 5:3
Frame rate mode : Constant
Frame rate : 23.976 (24000/1001) FPS
Color space : YUV
Chroma subsampling : 4:2:0
Bit depth : 10 bits
Bits/(Pixel*Frame) : 0.056
Stream size : 1.69 GiB (85%)
Default : Yes
Forced : No
Color range : Limited
Color primaries : BT.709
Transfer characteristics : BT.709
Matrix coefficients : BT.709

Audio
ID : 2
Format : AC-3
Format/Info : Audio Coding 3
Format settings, Endianness : Big
Codec ID : A_AC3
Duration : 1 h 32 min
Bit rate mode : Constant
Bit rate : 448 kb/s
Channel(s) : 6 channels
Channel positions : Front: L C R, Side: L R, LFE
Sampling rate : 48.0 kHz
Frame rate : 31.250 FPS (1536 SPF)
Bit depth : 16 bits
Compression mode : Lossy
Stream size : 295 MiB (14%)
Language : English
Service kind : Complete Main
Default : Yes
Forced : No

Text #1
ID : 3
Format : VobSub
Codec ID : S_VOBSUB
Codec ID/Info : Picture based subtitle format used on DVDs
Duration : 1 h 28 min
Bit rate : 7 871 b/s
Count of elements : 1506
Stream size : 4.98 MiB (0%)
Language : English
Default : No
Forced : No

Text #2
ID : 4
Format : VobSub
Codec ID : S_VOBSUB
Codec ID/Info : Picture based subtitle format used on DVDs
Duration : 1 h 24 min
Bit rate : 10.1 kb/s
Count of elements : 1018
Stream size : 6.12 MiB (0%)
Language : English
Default : No
Forced : No

Text #3
ID : 5
Format : VobSub
Codec ID : S_VOBSUB
Codec ID/Info : Picture based subtitle format used on DVDs
Duration : 1 h 29 min
Bit rate : 8 545 b/s
Count of elements : 1060
Stream size : 5.44 MiB (0%)
Language : English
Default : No
Forced : No

Menu
00:00:00.000 : en:(01)00:00:00:000
00:06:53.579 : en:(02)00:06:53:579
00:12:00.177 : en:(03)00:12:00:177
00:16:28.445 : en:(04)00:16:28:445
00:20:18.008 : en:(05)00:20:18:008
00:24:54.743 : en:(06)00:24:54:743
00:29:10.957 : en:(07)00:29:10:957
00:35:36.050 : en:(08)00:35:36:050
00:43:05.207 : en:(09)00:43:05:207
00:52:00.283 : en:(10)00:52:00:283
01:00:32.920 : en:(11)01:00:32:920
01:05:24.170 : en:(12)01:05:24:170
01:12:02.943 : en:(13)01:12:02:943
01:17:55.796 : en:(14)01:17:55:796
01:21:56.328 : en:(15)01:21:56:328
01:26:25.889 : en:(16)01:26:25:889





Monty Python and the Holy Grail (1975)


Monty Python and the Holy Grail (1975)


Monty Python and the Holy Grail (1975)


Monty Python and the Holy Grail (1975)


Monty Python and the Holy Grail (1975)