Moonshine and the Dixie Mafia (2014)

Posted By: notbanned
Moonshine and the Dixie Mafia (2014)

Moonshine and the Dixie Mafia (2014)
WEBRip | 1280x714 | .MKV/AVC @ 2514 Kbps | 3x~59min | 3.27 GiB
Audio: English AAC 128 kbps, 2 channels | Subs: English
Genre: Documentary

Discover Dixie and all its distinct and colorful history! Home to the finest whisky and bourbon, the American South is known for many things, including its charming drawl and glorious mountain ranges. However, there is another side to Southern history steeped in mystique, communal survival, ingenuity, brilliant entrepreneurship and distrust of the government. In this three-part documentary series you will hear the true stories of the crime, corruption and hard liquor production that influenced the customs and culture of the Deep South. From the creation of the Stock-Car, to the battles between the good and evil players of the Dixie Mafia, hear the fascinating stories behind the legendary bootleggers of the South and how they risked it all to answer their nation s call for good illegal booze!

Episode 1 - The Moonshine and Bourbon Capital of the World
Travel to the Appalachia s of the Deep South and find out how Dixie became The Moonshine and Bourbon Capital of the World.

Episode 2 - Southern Style Racing and Bootlegging
After the passing of Prohibition in 1919, whiskey-making in the hills and hollows of Appalachia turned into a big business and deadly cat-and-mouse game with the law, which gave rise to the South s most cherished pastime, Stock-car racing.

Episode 3 - The Southern Mob, aka The Dixie Mafia
Hear the story of Walking Tall fame Buford Pusser, the one man who was willing to take on the Dixie Mafia from his daughter, Dwana, as she discusses her daddy s heroic life and tragic death.


General
Unique ID : 171013733000741208444363267079358337704 (0x80A80C0385E50950AA5DE895602F52A8)
Complete name : Moonshine.and.the.Dixie.Mafia.S01E01.720p.mkv
Format : Matroska
Format version : Version 4 / Version 2
File size : 1.11 GiB
Duration : 59 min 59 s
Overall bit rate : 2 645 kb/s

Video
ID : 1
Format : AVC
Format/Info : Advanced Video Codec
Format profile : High@L4
Format settings, CABAC : Yes
Format settings, ReFrames : 4 frames
Codec ID : V_MPEG4/ISO/AVC
Duration : 59 min 59 s
Bit rate : 2 514 kb/s
Width : 1 280 pixels
Height : 714 pixels
Display aspect ratio : 16:9
Frame rate mode : Constant
Frame rate : 29.970 (30000/1001) FPS
Color space : YUV
Chroma subsampling : 4:2:0
Bit depth : 8 bits
Scan type : Progressive
Bits/(Pixel*Frame) : 0.092
Stream size : 1.05 GiB (95%)
Writing library : x264 core 148 r2 a01e339
Encoding settings : cabac=1 / ref=4 / deblock=1:0:0 / analyse=0x3:0x113 / me=umh / subme=8 / psy=1 / psy_rd=1.00:0.00 / mixed_ref=1 / me_range=16 / chroma_me=1 / trellis=0 / 8x8dct=1 / cqm=0 / deadzone=21,11 / fast_pskip=1 / chroma_qp_offset=-2 / threads=22 / lookahead_threads=5 / sliced_threads=0 / nr=0 / decimate=1 / interlaced=0 / bluray_compat=0 / constrained_intra=0 / bframes=4 / b_pyramid=2 / b_adapt=2 / b_bias=0 / direct=3 / weightb=1 / open_gop=0 / weightp=2 / keyint=120 / keyint_min=60 / scenecut=40 / intra_refresh=0 / rc_lookahead=40 / rc=crf / mbtree=1 / crf=1.0 / qcomp=0.60 / qpmin=0 / qpmax=69 / qpstep=4 / vbv_maxrate=3000 / vbv_bufsize=3000 / crf_max=0.0 / nal_hrd=none / filler=0 / ip_ratio=1.41 / aq=1:1.00
Default : Yes
Forced : No

Audio
ID : 2
Format : AAC
Format/Info : Advanced Audio Codec
Format profile : LC
Codec ID : A_AAC
Duration : 59 min 59 s
Bit rate : 128 kb/s
Channel(s) : 2 channels
Channel positions : Front: L R
Sampling rate : 44.1 kHz
Frame rate : 43.066 FPS (1024 spf)
Compression mode : Lossy
Delay relative to video : -66 ms
Stream size : 54.9 MiB (5%)
Language : English
Default : Yes
Forced : No

Text
ID : 3
Format : UTF-8
Codec ID : S_TEXT/UTF8
Codec ID/Info : UTF-8 Plain Text
Duration : 58 min 11 s
Bit rate : 82 b/s
Count of elements : 851
Stream size : 35.1 KiB (0%)
Title : English
Default : Yes
Forced : No


Screenshots:

Moonshine and the Dixie Mafia (2014)

Moonshine and the Dixie Mafia (2014)

Moonshine and the Dixie Mafia (2014)

Moonshine and the Dixie Mafia (2014)