Most Shocking Celebrity Moments 2018

Posted By: Tavaz
1080p (FullHD) / HDTV
Most Shocking Celebrity Moments 2018

Most Shocking Celebrity Moments 2018
HDTV | MKV | 1920x1080 | English | H264 @ 5710 kbps | AC-3 @ 384 kbps | 2 h 19 min | 6.07 GiB
Subtitles: English
Genre: Documentary

A countdown of 40 of the most shocking celebrity antics of the year. All sorts of bad behaviour is covered from Kanye West's outbursts to Ant McPartlin's drink-driving incident. Other stories include Madonna's off-colour tribute to Aretha Franklin at the VMAs and the most shocking moments from Celebrity Big Brother. Plus, the tense stand-off between Kim Woodburn and Coleen Nolan on Loose Women, President Trump's controversial UK visit and claims concerning David and Victoria Beckham's marriage. Featuring contributions by Louis Walsh, Jeremy Vine, Michelle Visage, Jermaine Pennant, Dan Osborne, India Willoughby and Courtney Act.

c2b59a1eaa07427eb5609c8abb64f59e.mkv (6.1 GB)



General
Complete name : ./c2b59a1eaa07427eb5609c8abb64f59e.mkv
Format : Matroska
Format version : Version 4 / Version 2
File size : 6.07 GiB
Duration : 2 h 19 min
Overall bit rate : 6 218 kb/s
Movie name : Most Shocking Celebrity Moments 2018
Writing application : https://www.youtube.com/watch?v=qxwtk2uvXqk
Writing library : BiS2nd - Against The Pain
Tool : Multi Group Release Encoder v29.3

Video
ID : 1
Format : AVC
Format/Info : Advanced Video Codec
Format profile : High@L4.2
Format settings : CABAC / 4 Ref Frames
Format settings, CABAC : Yes
Format settings, RefFrames : 4 frames
Codec ID : V_MPEG4/ISO/AVC
Duration : 2 h 19 min
Bit rate : 5 710 kb/s
Width : 1 920 pixels
Height : 1 080 pixels
Display aspect ratio : 16:9
Frame rate mode : Constant
Frame rate : 50.000 FPS
Color space : YUV
Chroma subsampling : 4:2:0
Bit depth : 8 bits
Scan type : Progressive
Bits/(Pixel*Frame) : 0.055
Stream size : 5.58 GiB (92%)
Writing library : x264 core 157 r2935 545de2f
Encoding settings : cabac=1 / ref=4 / deblock=1:0:0 / analyse=0x3:0x113 / me=hex / subme=8 / psy=1 / psy_rd=1.00:0.00 / mixed_ref=1 / me_range=16 / chroma_me=1 / trellis=2 / 8x8dct=1 / cqm=0 / deadzone=21,11 / fast_pskip=1 / chroma_qp_offset=-2 / threads=12 / lookahead_threads=2 / sliced_threads=0 / nr=0 / decimate=1 / interlaced=0 / bluray_compat=0 / constrained_intra=0 / bframes=3 / b_pyramid=2 / b_adapt=1 / b_bias=0 / direct=3 / weightb=1 / open_gop=0 / weightp=2 / keyint=250 / keyint_min=25 / scenecut=40 / intra_refresh=0 / rc_lookahead=50 / rc=crf / mbtree=1 / crf=20.0 / qcomp=0.60 / qpmin=0 / qpmax=69 / qpstep=4 / ip_ratio=1.40 / aq=1:1.00
Language : English
Default : Yes
Forced : No
Color range : Limited
Matrix coefficients : BT.709

Audio
ID : 2
Format : AC-3
Format/Info : Audio Coding 3
Format settings, Endianness : Big
Codec ID : A_AC3
Duration : 2 h 19 min
Bit rate mode : Constant
Bit rate : 384 kb/s
Channel(s) : 6 channels
Channel positions : Front: L C R, Side: L R, LFE
Sampling rate : 48.0 kHz
Frame rate : 31.250 FPS (1536 SPF)
Bit depth : 16 bits
Compression mode : Lossy
Stream size : 384 MiB (6%)
Language : English
Service kind : Complete Main
Default : Yes
Forced : No

Text
ID : 3
Format : UTF-8
Codec ID : S_TEXT/UTF8
Codec ID/Info : UTF-8 Plain Text
Language : English
Default : No
Forced : No





Most Shocking Celebrity Moments 2018


Most Shocking Celebrity Moments 2018


Most Shocking Celebrity Moments 2018


Most Shocking Celebrity Moments 2018