Dream House Nightmare / Mother of the Year (2017)

Posted By: Without
1080p (FullHD) / WEB-DL IMDb
Dream House Nightmare / Mother of the Year (2017)

Dream House Nightmare / Mother of the Year (2017)
WEB-DL 1080p | MKV | 1920x1080 | AVC@11.3 Mb/s | English AC3@224 kb/s
Subs: English | 2 channels | 1 h 30 min | 7.22 GB
Genre: Drama, Thriller

A young couple buy their dream home in New Orleans, only to be tormented by an obsessive mother who believes the house should be hers.



General
Dream.House.Nightmare.2017.1080p.AMZN.WEB-DL.DD+2.0.H.264-AJP69\Dream.House.Nightmare.2017.1080p.AMZN.WEB-DL.DD+2.0.H.264-AJP69.mkv
Format : Matroska
Format version : Version 4 / Version 2
File size : 7.22 GiB
Duration : 1 h 30 min
Overall bit rate mode : Variable
Overall bit rate : 11.5 Mb/s
Encoded date : UTC 2017-12-03 19:59:29
Writing application : mkvmerge v17.0.0 ('Be Ur Friend') 64-bit
Writing library : libebml v1.3.5 + libmatroska v1.4.8

Video
ID : 1
Format : AVC
Format/Info : Advanced Video Codec
Format profile : High@L4
Format settings, CABAC : Yes
Format settings, ReFrames : 4 frames
Codec ID : V_MPEG4/ISO/AVC
Duration : 1 h 30 min
Bit rate mode : Variable
Bit rate : 11.3 Mb/s
Maximum bit rate : 15.0 Mb/s
Width : 1 920 pixels
Height : 1 080 pixels
Display aspect ratio : 16:9
Frame rate mode : Constant
Frame rate : 23.976 (24000/1001) FPS
Color space : YUV
Chroma subsampling : 4:2:0
Bit depth : 8 bits
Scan type : Progressive
Bits/(Pixel*Frame) : 0.226
Stream size : 7.08 GiB (98%)
Default : Yes
Forced : No
Color range : Limited
Color primaries : BT.709
Transfer characteristics : BT.709
Matrix coefficients : BT.709

Audio
ID : 2
Format : E-AC-3
Format/Info : Enhanced Audio Coding 3
Format settings, Endianness : Big
Codec ID : A_EAC3
Duration : 1 h 30 min
Bit rate mode : Constant
Bit rate : 224 kb/s
Channel(s) : 2 channels
Channel positions : Front: L R
Sampling rate : 48.0 kHz
Frame rate : 187.500 FPS (256 spf)
Compression mode : Lossy
Stream size : 144 MiB (2%)
Language : English
Default : Yes
Forced : No

Text
ID : 3
Format : UTF-8
Codec ID : S_TEXT/UTF8
Codec ID/Info : UTF-8 Plain Text
Duration : 1 h 26 min
Bit rate : 62 b/s
Count of elements : 1395
Stream size : 39.7 KiB (0%)
Language : English
Default : No
Forced : No


WEB-DL 1080p Screenshots

Dream House Nightmare / Mother of the Year (2017)

Dream House Nightmare / Mother of the Year (2017)

Dream House Nightmare / Mother of the Year (2017)

Dream House Nightmare / Mother of the Year (2017)


Come Visit My Blog (•‿•)