Subcategories

My Super Ex-Girlfriend (2006)

Posted By: king-ston
My Super Ex-Girlfriend (2006)

My Super Ex-Girlfriend (2006)
BDRip | MP4 | AVC, 2500 Kbps | 1920x800 | 23.976 fps | 1.75 GB | Runtime: 96 Min
Audio : English AAC 224 Kbps | 6 channels | 48 KHz | Subtitle : None
Genre: Comedy | Romance | Sci-Fi

In New York, when the shy and lonely project manager of a design firm Matt Saunders meets Jenny Johnson in the subway, he invites her to date and have dinner with him. Jenny immediately falls in love for him, they have sex and she discloses her true identity to him, telling that she is the powerful superhero G-Girl. After meeting his co-worker and friend Hannah Lewis, the needy Jenny becomes jealous, controlling and manipulative, and Matt follows the advice of his best friend Vaughn Haige and dumps her, breaking her heart. Jenny turns Matt's life into hell, while he has a romance with Hannah. However, the archenemy of G-Girl and former high school sweetheart of Jenny, Professor Bedlam, proposes Matt to lure Jenny to strip her superpowers.
IMDB


Video
ID : 1
Format : AVC
Format/Info : Advanced Video Codec
Format profile : High@L4.1
Format settings, CABAC : Yes
Format settings, ReFrames : 4 frames
Codec ID : avc1
Codec ID/Info : Advanced Video Coding
Duration : 1h 36mn
Bit rate : 2 500 Kbps
Width : 1 920 pixels
Height : 800 pixels
Display aspect ratio : 2.40:1
Frame rate mode : Constant
Frame rate : 23.976 (23976/1000) fps
Color space : YUV
Chroma subsampling : 4:2:0
Bit depth : 8 bits
Scan type : Progressive
Bits/(Pixel*Frame) : 0.068
Stream size : 1.69 GiB (92%)
Writing library : x264 core 148 r2638M 7599210
Encoding settings : cabac=1 / ref=4 / deblock=1:-1:-1 / analyse=0x3:0x113 / me=umh / subme=9 / psy=1 / psy_rd=1.00:0.15 / mixed_ref=1 / me_range=24 / chroma_me=1 / trellis=2 / 8x8dct=1 / cqm=0 / deadzone=21,11 / fast_pskip=1 / chroma_qp_offset=-3 / threads=32 / lookahead_threads=4 / sliced_threads=0 / nr=0 / decimate=1 / interlaced=0 / bluray_compat=0 / constrained_intra=0 / bframes=3 / b_pyramid=2 / b_adapt=2 / b_bias=0 / direct=3 / weightb=1 / open_gop=0 / weightp=2 / keyint=250 / keyint_min=25 / scenecut=40 / intra_refresh=0 / rc_lookahead=50 / rc=2pass / mbtree=1 / bitrate=2500 / ratetol=1.0 / qcomp=0.60 / qpmin=0 / qpmax=69 / qpstep=4 / cplxblur=20.0 / qblur=0.5 / vbv_maxrate=31250 / vbv_bufsize=31250 / nal_hrd=none / filler=0 / ip_ratio=1.40 / aq=3:1.00
Encoded date : UTC 2016-02-17 22:48:58
Tagged date : UTC 2016-02-17 22:48:58

Audio
ID : 2
Format : AAC
Format/Info : Advanced Audio Codec
Format profile : LC
Codec ID : 40
Duration : 1h 36mn
Bit rate mode : Constant
Bit rate : 224 Kbps
Channel(s) : 2 channels
Channel(s)_Original : 6 channels
Channel positions : Front: L C R, Side: L R, LFE
Sampling rate : 48.0 KHz
Frame rate : 46.875 fps (1024 spf)
Compression mode : Lossy
Stream size : 155 MiB (8%)
Language : English
Default : Yes
Alternate group : 1
Encoded date : UTC 2016-02-17 22:48:58
Tagged date : UTC 2016-02-17 22:48:58


My Super Ex-Girlfriend (2006)