My Big Fat Greek Wedding 2 (2016)

Posted By: Without
My Big Fat Greek Wedding 2 (2016)

My Big Fat Greek Wedding 2 (2016)
BDRip | MKV | 720x302 | AVC@760 Kbps | English AAC@117 Kbps | 2 channels | 1h 33mn | 590 MB
BRRip | AVI | 720x304 | XviD@1669 Kbps | English AC3@448 Kbps | 6 channels | 1h 33mn | 1.39 GB
BDRip 720p | MKV | 1280x536 | AVC@5155 Kbps | English DTS@1509 Kbps | Subs: English | 6 channels | 1h 33mn | 4.37 GB
BDRip 1080p | MKV | 1920x808 | AVC@10.2 Mbps | English DTS@1509 Kbps | Subs: English | 6 channels | 1h 33mn | 7.64 GB
Genre: Comedy, Family, Romance

A Portokalos family secret brings the beloved characters back together for an even bigger and Greeker wedding.



General
Complete name : J:\My.Big.Fat.Greek.Wedding.2.2016.BDRip.x264-DRONES.mkv
Format : Matroska
Format version : Version 4 / Version 2
File size : 590 MiB
Duration : 1h 33mn
Overall bit rate : 879 Kbps
Encoded date : UTC 2016-06-08 18:01:39
Writing application : mkvmerge v8.3.0 ('Over the Horizon') 64bit
Writing library : libebml v1.3.1 + libmatroska v1.4.2

Video
ID : 1
Format : AVC
Format/Info : Advanced Video Codec
Format profile : High@L3.1
Format settings, CABAC : Yes
Format settings, ReFrames : 5 frames
Codec ID : V_MPEG4/ISO/AVC
Duration : 1h 33mn
Bit rate : 760 Kbps
Width : 720 pixels
Height : 302 pixels
Display aspect ratio : 2.40:1
Frame rate mode : Constant
Frame rate : 23.976 fps
Color space : YUV
Chroma subsampling : 4:2:0
Bit depth : 8 bits
Scan type : Progressive
Bits/(Pixel*Frame) : 0.146
Stream size : 511 MiB (86%)
Title : X264
Writing library : x264 core 148 r2692 64f4e24
Encoding settings : cabac=1 / ref=5 / deblock=1:-2:-2 / analyse=0x3:0x113 / me=umh / subme=8 / psy=1 / psy_rd=0.90:0.00 / mixed_ref=1 / me_range=16 / chroma_me=1 / trellis=1 / 8x8dct=1 / cqm=0 / deadzone=21,11 / fast_pskip=1 / chroma_qp_offset=-2 / threads=9 / lookahead_threads=1 / sliced_threads=0 / nr=0 / decimate=1 / interlaced=0 / bluray_compat=0 / constrained_intra=0 / bframes=3 / b_pyramid=2 / b_adapt=2 / b_bias=0 / direct=3 / weightb=1 / open_gop=0 / weightp=2 / keyint=250 / keyint_min=23 / scenecut=40 / intra_refresh=0 / rc_lookahead=50 / rc=crf / mbtree=1 / crf=19.0 / qcomp=0.60 / qpmin=0 / qpmax=69 / qpstep=4 / ip_ratio=1.40 / aq=1:1.00
Language : English
Default : Yes
Forced : No
Color range : Limited
Matrix coefficients : BT.709

Audio
ID : 2
Format : AAC
Format/Info : Advanced Audio Codec
Format profile : LC
Codec ID : A_AAC
Duration : 1h 33mn
Bit rate : 117 Kbps
Channel(s) : 2 channels
Channel positions : Front: L R
Sampling rate : 48.0 KHz
Frame rate : 46.875 fps (1024 spf)
Compression mode : Lossy
Stream size : 78.4 MiB (13%)
Language : English
Default : Yes
Forced : No

Menu
00:00:00.000 : en:00:00:00.000
00:05:40.924 : en:00:05:40.924
00:10:40.431 : en:00:10:40.431
00:16:29.488 : en:00:16:29.488
00:20:45.578 : en:00:20:45.578
00:25:25.274 : en:00:25:25.274
00:30:37.127 : en:00:30:37.127
00:34:18.306 : en:00:34:18.306
00:39:20.984 : en:00:39:20.984
00:45:16.714 : en:00:45:16.714
00:50:53.050 : en:00:50:53.050
00:55:24.112 : en:00:55:24.112
01:00:03.058 : en:01:00:03.058
01:06:48.213 : en:01:06:48.213
01:09:38.132 : en:01:09:38.132
01:13:38.581 : en:01:13:38.581
01:19:09.995 : en:01:19:09.995
01:21:30.803 : en:01:21:30.803
01:24:08.877 : en:01:24:08.877
01:29:48.550 : en:01:29:48.550

General
Complete name : J:\My.Big.Fat.Greek.Wedding.2.2016.BRRip.XviD.AC3-EVO\My.Big.Fat.Greek.Wedding.2.2016.BRRip.XviD.AC3-EVO.avi
Format : AVI
Format/Info : Audio Video Interleave
File size : 1.39 GiB
Duration : 1h 33mn
Overall bit rate : 2 126 Kbps
Writing library : VirtualDub build 32593/release

Video
ID : 0
Format : MPEG-4 Visual
Format profile : Advanced Simple@L5
Format settings, BVOP : 2
Format settings, QPel : No
Format settings, GMC : No warppoints
Format settings, Matrix : Default (H.263)
Muxing mode : Packed bitstream
Codec ID : XVID
Codec ID/Hint : XviD
Duration : 1h 33mn
Bit rate : 1 669 Kbps
Width : 720 pixels
Height : 304 pixels
Display aspect ratio : 2.35:1
Frame rate : 23.976 (23976/1000) fps
Color space : YUV
Chroma subsampling : 4:2:0
Bit depth : 8 bits
Scan type : Progressive
Compression mode : Lossy
Bits/(Pixel*Frame) : 0.318
Stream size : 1.09 GiB (78%)
Writing library : XviD 66

Audio
ID : 1
Format : AC-3
Format/Info : Audio Coding 3
Mode extension : CM (complete main)
Format settings, Endianness : Big
Codec ID : 2000
Duration : 1h 33mn
Bit rate mode : Constant
Bit rate : 448 Kbps
Channel(s) : 6 channels
Channel positions : Front: L C R, Side: L R, LFE
Sampling rate : 48.0 KHz
Frame rate : 31.250 fps (1536 spf)
Compression mode : Lossy
Stream size : 301 MiB (21%)
Alignment : Aligned on interleaves
Interleave, duration : 42 ms (1.00 video frame)
Interleave, preload duration : 512 ms

General
Unique ID : 180960860805278455896580607630426779230 (0x8823CB476E4968FA8848504A37D82E5E)
Complete name : J:\My.Big.Fat.Greek.Wedding.2.2016.720p.BluRay.x264-DRONES.mkv
Format : Matroska
Format version : Version 4 / Version 2
File size : 4.37 GiB
Duration : 1h 33mn
Overall bit rate : 6 665 Kbps
Encoded date : UTC 2016-06-08 17:43:17
Writing application : mkvmerge v8.3.0 ('Over the Horizon') 64bit
Writing library : libebml v1.3.1 + libmatroska v1.4.2

Video
ID : 1
Format : AVC
Format/Info : Advanced Video Codec
Format profile : High@L4.1
Format settings, CABAC : Yes
Format settings, ReFrames : 5 frames
Codec ID : V_MPEG4/ISO/AVC
Duration : 1h 33mn
Bit rate : 5 155 Kbps
Width : 1 280 pixels
Height : 536 pixels
Display aspect ratio : 2.40:1
Frame rate mode : Constant
Frame rate : 23.976 fps
Color space : YUV
Chroma subsampling : 4:2:0
Bit depth : 8 bits
Scan type : Progressive
Bits/(Pixel*Frame) : 0.313
Stream size : 3.38 GiB (77%)
Writing library : x264 core 148 r2692 64f4e24
Encoding settings : cabac=1 / ref=5 / deblock=1:0:0 / analyse=0x3:0x133 / me=umh / subme=7 / psy=1 / psy_rd=1.00:0.00 / mixed_ref=1 / me_range=16 / chroma_me=1 / trellis=1 / 8x8dct=1 / cqm=0 / deadzone=21,11 / fast_pskip=0 / chroma_qp_offset=-2 / threads=17 / lookahead_threads=2 / sliced_threads=0 / nr=0 / decimate=1 / interlaced=0 / bluray_compat=0 / constrained_intra=0 / bframes=3 / b_pyramid=2 / b_adapt=1 / b_bias=0 / direct=1 / weightb=1 / open_gop=0 / weightp=2 / keyint=250 / keyint_min=23 / scenecut=40 / intra_refresh=0 / rc_lookahead=40 / rc=2pass / mbtree=1 / bitrate=5155 / ratetol=1.0 / qcomp=0.60 / qpmin=0 / qpmax=69 / qpstep=4 / cplxblur=20.0 / qblur=0.5 / ip_ratio=1.40 / aq=1:1.00
Language : English
Default : Yes
Forced : No

Audio
ID : 2
Format : DTS
Format/Info : Digital Theater Systems
Mode : 16
Format settings, Endianness : Big
Codec ID : A_DTS
Duration : 1h 33mn
Bit rate mode : Constant
Bit rate : 1 509 Kbps
Channel(s) : 6 channels
Channel positions : Front: L C R, Side: L R, LFE
Sampling rate : 48.0 KHz
Frame rate : 93.750 fps (512 spf)
Bit depth : 24 bits
Compression mode : Lossy
Stream size : 1 013 MiB (23%)
Language : English
Default : Yes
Forced : No

Menu
00:00:00.000 : en:00:00:00.000
00:05:40.924 : en:00:05:40.924
00:10:40.431 : en:00:10:40.431
00:16:29.488 : en:00:16:29.488
00:20:45.578 : en:00:20:45.578
00:25:25.274 : en:00:25:25.274
00:30:37.127 : en:00:30:37.127
00:34:18.306 : en:00:34:18.306
00:39:20.984 : en:00:39:20.984
00:45:16.714 : en:00:45:16.714
00:50:53.050 : en:00:50:53.050
00:55:24.112 : en:00:55:24.112
01:00:03.058 : en:01:00:03.058
01:06:48.213 : en:01:06:48.213
01:09:38.132 : en:01:09:38.132
01:13:38.581 : en:01:13:38.581
01:19:09.995 : en:01:19:09.995
01:21:30.803 : en:01:21:30.803
01:24:08.877 : en:01:24:08.877
01:29:48.550 : en:01:29:48.550

General
Unique ID : 219671277852176057926710156401194222202 (0xA54326318F75554997B358D2197EC27A)
Complete name : J:\blow-my.big.fat.greek.wedding.2.2016.1080p.bluray.x264.mkv
Format : Matroska
Format version : Version 4 / Version 2
File size : 7.65 GiB
Duration : 1h 33mn
Overall bit rate : 11.7 Mbps
Encoded date : UTC 2016-06-08 17:52:09
Writing application : mkvmerge v8.5.2 ('DiAMOND') 64bit
Writing library : libebml v1.3.3 + libmatroska v1.4.4

Video
ID : 1
Format : AVC
Format/Info : Advanced Video Codec
Format profile : High@L4.1
Format settings, CABAC : Yes
Format settings, ReFrames : 5 frames
Codec ID : V_MPEG4/ISO/AVC
Duration : 1h 33mn
Bit rate : 10.2 Mbps
Width : 1 920 pixels
Height : 808 pixels
Display aspect ratio : 2.40:1
Frame rate mode : Constant
Frame rate : 23.976 (24000/1001) fps
Color space : YUV
Chroma subsampling : 4:2:0
Bit depth : 8 bits
Scan type : Progressive
Bits/(Pixel*Frame) : 0.273
Stream size : 6.51 GiB (85%)
Writing library : x264 core 148 r2692 64f4e24
Encoding settings : cabac=1 / ref=5 / deblock=1:0:0 / analyse=0x3:0x113 / me=umh / subme=8 / psy=1 / psy_rd=1.00:0.00 / mixed_ref=1 / me_range=16 / chroma_me=1 / trellis=1 / 8x8dct=1 / cqm=0 / deadzone=21,11 / fast_pskip=0 / chroma_qp_offset=-2 / threads=24 / lookahead_threads=4 / sliced_threads=0 / nr=0 / decimate=1 / interlaced=0 / bluray_compat=0 / constrained_intra=0 / bframes=3 / b_pyramid=2 / b_adapt=2 / b_bias=0 / direct=3 / weightb=1 / open_gop=0 / weightp=2 / keyint=250 / keyint_min=23 / scenecut=40 / intra_refresh=0 / rc_lookahead=50 / rc=2pass / mbtree=1 / bitrate=10161 / ratetol=1.0 / qcomp=0.60 / qpmin=0 / qpmax=69 / qpstep=4 / cplxblur=20.0 / qblur=0.5 / ip_ratio=1.40 / aq=1:1.00
Language : English
Default : Yes
Forced : No

Audio
ID : 2
Format : DTS
Format/Info : Digital Theater Systems
Mode : 16
Format settings, Endianness : Big
Codec ID : A_DTS
Duration : 1h 33mn
Bit rate mode : Constant
Bit rate : 1 509 Kbps
Channel(s) : 6 channels
Channel positions : Front: L C R, Side: L R, LFE
Sampling rate : 48.0 KHz
Frame rate : 93.750 fps (512 spf)
Bit depth : 24 bits
Compression mode : Lossy
Stream size : 1 013 MiB (13%)
Language : English
Default : Yes
Forced : No

Text #1
ID : 3
Format : UTF-8
Codec ID : S_TEXT/UTF8
Codec ID/Info : UTF-8 Plain Text
Title : English regular
Language : English
Default : No
Forced : No

Text #2
ID : 4
Format : UTF-8
Codec ID : S_TEXT/UTF8
Codec ID/Info : UTF-8 Plain Text
Title : English sdh
Language : English
Default : No
Forced : No

Menu
00:00:00.000 : en:00:00:00.000
00:05:40.924 : en:00:05:40.924
00:10:40.431 : en:00:10:40.431
00:16:29.488 : en:00:16:29.488
00:20:45.578 : en:00:20:45.578
00:25:25.274 : en:00:25:25.274
00:30:37.127 : en:00:30:37.127
00:34:18.306 : en:00:34:18.306
00:39:20.984 : en:00:39:20.984
00:45:16.714 : en:00:45:16.714
00:50:53.050 : en:00:50:53.050
00:55:24.112 : en:00:55:24.112
01:00:03.058 : en:01:00:03.058
01:06:48.213 : en:01:06:48.213
01:09:38.132 : en:01:09:38.132
01:13:38.581 : en:01:13:38.581
01:19:09.995 : en:01:19:09.995
01:21:30.803 : en:01:21:30.803
01:24:08.877 : en:01:24:08.877
01:29:48.550 : en:01:29:48.550


BDRip Screenshots

My Big Fat Greek Wedding 2 (2016)

My Big Fat Greek Wedding 2 (2016)

My Big Fat Greek Wedding 2 (2016)


BRRip Screenshots

My Big Fat Greek Wedding 2 (2016)

My Big Fat Greek Wedding 2 (2016)

My Big Fat Greek Wedding 2 (2016)


BDRip 720p Screenshots

My Big Fat Greek Wedding 2 (2016)

My Big Fat Greek Wedding 2 (2016)

My Big Fat Greek Wedding 2 (2016)


BDRip 1080p Screenshots

My Big Fat Greek Wedding 2 (2016)

My Big Fat Greek Wedding 2 (2016)

My Big Fat Greek Wedding 2 (2016)


Come Visit My Blog (•‿•)