Mysteries Of The Mekong - Vietnam: Life In The Delta (2017)

Posted By: notbanned
720p (HD) / WEB-DL IMDb
Mysteries Of The Mekong - Vietnam: Life In The Delta (2017)

Mysteries Of The Mekong - Vietnam: Life In The Delta (2017)
WEB-DL | 1280x720 | .MKV/AVC @ 2551 Kbps | 48 min 0 s | 965 MiB
Audio: English AAC 256 kbps, 2 channels | Subs: None
Genre: Documentary

The final country on the Mekong’s journey is the home of the rivers mighty delta. A large deposit of rich nutrients carried downstream from hundreds of kilometres makes this region, the jewel of Vietnam’s crown, a biological treasure trove.

General
Unique ID : 226227935866441961999129913332871116343 (0xAA31EA6461D285918BA3C248C03AB637)
Complete name : Mysteries.of.the.Mekong.Vietnam.Life.in.the.Delta.720p.mkv
Format : Matroska
Format version : Version 4 / Version 2
File size : 965 MiB
Duration : 48 min 0 s
Overall bit rate : 2 810 kb/s

Video
ID : 1
Format : AVC
Format/Info : Advanced Video Codec
Format profile : High@L3.2
Format settings, CABAC : Yes
Format settings, ReFrames : 5 frames
Codec ID : V_MPEG4/ISO/AVC
Duration : 48 min 0 s
Bit rate : 2 551 kb/s
Width : 1 280 pixels
Height : 720 pixels
Display aspect ratio : 16:9
Frame rate mode : Constant
Frame rate : 25.000 FPS
Color space : YUV
Chroma subsampling : 4:2:0
Bit depth : 8 bits
Scan type : Progressive
Bits/(Pixel*Frame) : 0.111
Stream size : 876 MiB (91%)
Writing library : x264 core 148 r10 72d53ab
Encoding settings : cabac=1 / ref=5 / deblock=1:0:0 / analyse=0x3:0x113 / me=hex / subme=8 / psy=1 / psy_rd=1.00:0.00 / mixed_ref=1 / me_range=16 / chroma_me=1 / trellis=2 / 8x8dct=1 / cqm=0 / deadzone=21,11 / fast_pskip=1 / chroma_qp_offset=-2 / threads=22 / lookahead_threads=3 / sliced_threads=0 / nr=0 / decimate=1 / interlaced=0 / bluray_compat=0 / stitchable=1 / constrained_intra=0 / bframes=3 / b_pyramid=2 / b_adapt=1 / b_bias=0 / direct=3 / weightb=1 / open_gop=0 / weightp=2 / keyint=infinite / keyint_min=25 / scenecut=40 / intra_refresh=0 / rc_lookahead=50 / rc=crf / mbtree=1 / crf=20.0 / qcomp=0.60 / qpmin=5 / qpmax=69 / qpstep=4 / vbv_maxrate=2750 / vbv_bufsize=7500 / crf_max=0.0 / nal_hrd=none / filler=0 / ip_ratio=1.40 / aq=1:1.00
Default : Yes
Forced : No
Color range : Limited
Color primaries : BT.709
Transfer characteristics : BT.709
Matrix coefficients : BT.709

Audio
ID : 2
Format : AAC
Format/Info : Advanced Audio Codec
Format profile : LC
Codec ID : A_AAC
Duration : 48 min 0 s
Bit rate : 256 kb/s
Channel(s) : 2 channels
Channel positions : Front: L R
Sampling rate : 48.0 kHz
Frame rate : 46.875 FPS (1024 spf)
Compression mode : Lossy
Delay relative to video : -80 ms
Stream size : 87.9 MiB (9%)
Language : English
Default : Yes
Forced : No


Screenshots:

Mysteries Of The Mekong - Vietnam: Life In The Delta (2017)

Mysteries Of The Mekong - Vietnam: Life In The Delta (2017)

Mysteries Of The Mekong - Vietnam: Life In The Delta (2017)

Mysteries Of The Mekong - Vietnam: Life In The Delta (2017)