Tags
Language
Tags

Sci Ch - Mysteries of the Universe Our Solar: Mission to the Sun (2020)

Posted By: notbanned
720p (HD) / WEBRip
Sci Ch - Mysteries of the Universe Our Solar: Mission to the Sun (2020)

Sci Ch - Mysteries of the Universe Our Solar: Mission to the Sun (2020)
WEBRip | 1280x720 | .MKV/AVC @ 3872 Kbps | 42 min 6 s | 1.18 GiB
Audio: English AAC 127 kbps, 2 channels | Subs: English
Genre: Documentary

A new mission to our Sun makes fresh discoveries in revealing how it works.

General
Unique ID : 232666503701465010713923222484749661846 (0xAF09F04B97BD1BC1816D6E3DBCEC3696)
Complete name : Mysteries.of.the.Universe.Our.Solar.System.Mission.to.the.Sun.720p.mkv
Format : Matroska
Format version : Version 4 / Version 2
File size : 1.18 GiB
Duration : 42 min 6 s
Overall bit rate : 4 001 kb/s

Video
ID : 1
Format : AVC
Format/Info : Advanced Video Codec
Format profile : High@L4.1
Format settings, CABAC : Yes
Format settings, ReFrames : 8 frames
Codec ID : V_MPEG4/ISO/AVC
Duration : 42 min 6 s
Bit rate : 3 872 kb/s
Width : 1 280 pixels
Height : 720 pixels
Display aspect ratio : 16:9
Frame rate mode : Constant
Frame rate : 23.976 (24000/1001) FPS
Color space : YUV
Chroma subsampling : 4:2:0
Bit depth : 8 bits
Scan type : Progressive
Bits/(Pixel*Frame) : 0.175
Stream size : 1.14 GiB (97%)
Writing library : x264 core 160 r3009 4c9b076
Encoding settings : cabac=1 / ref=8 / deblock=1:-3:-3 / analyse=0x3:0x133 / me=umh / subme=9 / psy=1 / psy_rd=1.00:0.00 / mixed_ref=1 / me_range=16 / chroma_me=1 / trellis=2 / 8x8dct=1 / cqm=0 / deadzone=21,11 / fast_pskip=1 / chroma_qp_offset=-2 / threads=18 / lookahead_threads=1 / sliced_threads=0 / nr=0 / decimate=1 / interlaced=0 / bluray_compat=0 / constrained_intra=0 / bframes=3 / b_pyramid=2 / b_adapt=2 / b_bias=0 / direct=3 / weightb=1 / open_gop=0 / weightp=2 / keyint=250 / keyint_min=23 / scenecut=40 / intra_refresh=0 / rc=crf / mbtree=0 / crf=18.0 / qcomp=0.60 / qpmin=0 / qpmax=69 / qpstep=4 / ip_ratio=1.40 / pb_ratio=1.30 / aq=3:0.75
Language : English
Default : Yes
Forced : No
Color range : Limited
Matrix coefficients : BT.709

Audio
ID : 2
Format : AAC
Format/Info : Advanced Audio Codec
Format profile : HE-AAC / LC
Codec ID : A_AAC
Duration : 42 min 6 s
Bit rate : 127 kb/s
Channel(s) : 2 channels
Channel positions : Front: L R
Sampling rate : 48.0 kHz / 24.0 kHz
Frame rate : 23.438 FPS (1024 spf)
Compression mode : Lossy
Stream size : 38.2 MiB (3%)
Language : English
Default : Yes
Forced : No

Text
ID : 3
Format : UTF-8
Codec ID : S_TEXT/UTF8
Codec ID/Info : UTF-8 Plain Text
Duration : 42 min 4 s
Bit rate : 117 b/s
Count of elements : 743
Stream size : 36.1 KiB (0%)
Language : English
Default : No
Forced : No


Screenshots:

Sci Ch - Mysteries of the Universe Our Solar: Mission to the Sun (2020)

Sci Ch - Mysteries of the Universe Our Solar: Mission to the Sun (2020)

Sci Ch - Mysteries of the Universe Our Solar: Mission to the Sun (2020)

Sci Ch - Mysteries of the Universe Our Solar: Mission to the Sun (2020)