NG Naked Science - O2: The Molecule that Made Our World (2008)

Posted By: Tutorial
NG Naked Science - O2: The Molecule that Made Our World (2008)

NG Naked Science - O2: The Molecule that Made Our World (2008)
HDTV | 1280 x 720 | .MKV/AVC @ 3033 Kbps | 44 min 52 s |1.07 GB
Audio: English AC-3 384 Kbps, 6 channels | Subs: English
Genre: Documentary, Science

Oxygen – we all need it, we can't live without it. It's integral to life on this planet. And it's probable that, as you watch this film, you will be breathing in an oxygen atom that was also breathed by Genghis Khan – or by the first ever apes to stand upright on the plains of Africa.
The oxygen that we breathe is made from two oxygen atoms joined together – O2. They were first joined more than 3 billion years ago by the earliest blue-green algae to evolve.
The oxygen molecule first came from bacteria and was present in the fires that destroyed the dinosaurs and the chemical reactions in all human cells, and as ozone they protect the earth from radiation.
Since then, both together and apart, they've had the most extraordinary adventures. Each of the two atoms in an oxygen molecule is virtually indestructible – so they have been first-hand players in some of the most dramatic events in the whole of Earth's history.
It's often said that we are breathing the same oxygen that the cavemen did. The life of a single molecule of oxygen is traced on it's astonishing journey spanning millions of years, from its creation, into photosynthesis, through the age of the dinosaurs, early man, and on into today.

also You can look my other last: Science-posts

General
Unique ID : 228425280860239798777669073727267072482 (0xABD91BDD5B3A8B90A1BD619A4690E9E2)
Complete name : NG.Naked.Science.O2.The.Molecule.That.Made.Our.World.mkv
Format : Matroska
Format version : Version 4 / Version 2
File size : 1.07 GiB
Duration : 44 min 52 s
Overall bit rate : 3 420 kb/s
Encoded date : UTC 2017-07-18 17:20:45
Writing application : mkvmerge v13.0.0 ('The Juggler') 64bit
Writing library : libebml v1.3.4 + libmatroska v1.4.5

Video
ID : 1
Format : AVC
Format/Info : Advanced Video Codec
Format profile : High@L4
Format settings, CABAC : Yes
Format settings, ReFrames : 8 frames
Codec ID : V_MPEG4/ISO/AVC
Duration : 44 min 52 s
Bit rate : 3 033 kb/s
Width : 1 280 pixels
Height : 720 pixels
Display aspect ratio : 16:9
Frame rate mode : Constant
Frame rate : 59.940 (59940/1000) FPS
Original frame rate : 59.940 (60000/1001) FPS
Color space : YUV
Chroma subsampling : 4:2:0
Bit depth : 8 bits
Scan type : Progressive
Bits/(Pixel*Frame) : 0.055
Stream size : 973 MiB (89%)
Writing library : x264 core 107 r1745 4785e8e
Encoding settings : cabac=1 / ref=8 / deblock=1:0:0 / analyse=0x3:0x133 / me=umh / subme=9 / psy=1 / psy_rd=1.00:0.00 / mixed_ref=1 / me_range=16 / chroma_me=1 / trellis=2 / 8x8dct=1 / cqm=0 / deadzone=21,11 / fast_pskip=1 / chroma_qp_offset=-2 / threads=12 / sliced_threads=0 / nr=0 / decimate=1 / interlaced=0 / constrained_intra=0 / bframes=3 / b_pyramid=2 / b_adapt=2 / b_bias=0 / direct=3 / weightb=1 / open_gop=0 / weightp=2 / keyint=250 / keyint_min=25 / scenecut=40 / intra_refresh=0 / rc_lookahead=60 / rc=2pass / mbtree=1 / bitrate=3033 / ratetol=1.0 / qcomp=0.60 / qpmin=10 / qpmax=51 / qpstep=4 / cplxblur=20.0 / qblur=0.5 / ip_ratio=1.40 / aq=1:1.00
Default : Yes
Forced : No

Audio
ID : 2
Format : AC-3
Format/Info : Audio Coding 3
Format settings, Endianness : Big
Codec ID : A_AC3
Duration : 44 min 52 s
Bit rate mode : Constant
Bit rate : 384 kb/s
Channel(s) : 6 channels
Channel positions : Front: L C R, Side: L R, LFE
Sampling rate : 48.0 kHz
Frame rate : 31.250 FPS (1536 spf)
Bit depth : 16 bits
Compression mode : Lossy
Stream size : 123 MiB (11%)
Language : English
Service kind : Complete Main
Default : Yes
Forced : No

Text
ID : 3
Format : UTF-8
Codec ID : S_TEXT/UTF8
Codec ID/Info : UTF-8 Plain Text
Duration : 44 min 46 s
Bit rate : 117 b/s
Count of elements : 665
Stream size : 38.4 KiB (0%)
Default : Yes
Forced : No
Screenshots

NG Naked Science - O2: The Molecule that Made Our World (2008)

NG Naked Science - O2: The Molecule that Made Our World (2008)

NG Naked Science - O2: The Molecule that Made Our World (2008)

NG Naked Science - O2: The Molecule that Made Our World (2008)

Welcome to my blog - daily update!

NG Naked Science - O2: The Molecule that Made Our World (2008)