NHK Cycle Around Japan - Oki Islands: A Legacy of Pride (2019)

Posted By: notbanned
720p (HD) / HDTV
NHK Cycle Around Japan - Oki Islands: A Legacy of Pride (2019)

NHK Cycle Around Japan - Oki Islands: A Legacy of Pride (2019)
HDTV | 1280x720 | .MKV/AVC @ 3659 Kbps | 48 min 23 s | 1.26 GiB
Audio: English AAC 64 kbps, 2 channels | Subs: None
Genre: Documentary

In a 150-km summer cycle ride, Michael Rice explores the remote Oki Islands, deeply forested and surrounded by the crystal clear waters of the Sea of Japan. Riding in his triathlon gear, he's ready for a dip whenever Nishinoshima's beaches offer the chance. On Nakanoshima, he meets the 48th descendant of a proud family that looked after an exiled former emperor 8 centuries ago, and still cares for his tomb. And on Dogo, the largest island, he tries his hand at traditional Oki sumo wrestling.

General
Unique ID : 86713784754264581259602086611338265400 (0x413C77ABC83FF7FC9ACEE87934220338)
Complete name : NHK.Cycle.Around.Japan.2019.Oki.Islands.A.Legacy.of.Pride.720p.mkv
Format : Matroska
Format version : Version 4 / Version 2
File size : 1.26 GiB
Duration : 48 min 23 s
Overall bit rate : 3 725 kb/s

Video
ID : 1
Format : AVC
Format/Info : Advanced Video Codec
Format profile : High@L3.1
Format settings, CABAC : Yes
Format settings, ReFrames : 4 frames
Codec ID : V_MPEG4/ISO/AVC
Duration : 48 min 23 s
Bit rate : 3 659 kb/s
Width : 1 280 pixels
Height : 720 pixels
Display aspect ratio : 16:9
Frame rate mode : Constant
Frame rate : 25.000 FPS
Color space : YUV
Chroma subsampling : 4:2:0
Bit depth : 8 bits
Scan type : Progressive
Bits/(Pixel*Frame) : 0.159
Stream size : 1.24 GiB (98%)
Writing library : x264 core 158 r2984 3759fcb
Encoding settings : cabac=1 / ref=4 / deblock=1:0:0 / analyse=0x3:0x113 / me=umh / subme=9 / psy=1 / psy_rd=1.00:0.00 / mixed_ref=1 / me_range=24 / chroma_me=1 / trellis=1 / 8x8dct=1 / cqm=0 / deadzone=21,11 / fast_pskip=0 / chroma_qp_offset=-2 / threads=18 / lookahead_threads=2 / sliced_threads=0 / nr=0 / decimate=1 / interlaced=0 / bluray_compat=0 / constrained_intra=0 / bframes=6 / b_pyramid=2 / b_adapt=2 / b_bias=0 / direct=1 / weightb=1 / open_gop=0 / weightp=2 / keyint=250 / keyint_min=25 / scenecut=40 / intra_refresh=0 / rc_lookahead=40 / rc=crf / mbtree=1 / crf=21.0 / qcomp=0.60 / qpmin=0 / qpmax=69 / qpstep=4 / ip_ratio=1.40 / aq=1:1.00
Language : English
Default : Yes
Forced : No
Color range : Limited
Color primaries : BT.709
Transfer characteristics : BT.709
Matrix coefficients : BT.709

Audio
ID : 2
Format : AAC
Format/Info : Advanced Audio Codec
Format profile : HE-AAC / LC
Codec ID : A_AAC
Duration : 48 min 23 s
Bit rate : 64.0 kb/s
Channel(s) : 2 channels
Channel positions : Front: L R
Sampling rate : 48.0 kHz / 24.0 kHz
Frame rate : 23.438 FPS (1024 spf)
Compression mode : Lossy
Stream size : 22.1 MiB (2%)
Language : English
Default : Yes
Forced : No


Screenshots:

NHK Cycle Around Japan - Oki Islands: A Legacy of Pride (2019)

NHK Cycle Around Japan - Oki Islands: A Legacy of Pride (2019)

NHK Cycle Around Japan - Oki Islands: A Legacy of Pride (2019)

NHK Cycle Around Japan - Oki Islands: A Legacy of Pride (2019)