NHK - Cycle Around Japan: Autumn Amidst Mother Nature in Hokkaido (2017)

Posted By: notbanned
NHK - Cycle Around Japan: Autumn Amidst Mother Nature in Hokkaido (2017)

NHK - Cycle Around Japan: Autumn Amidst Mother Nature in Hokkaido (2017)
HDTV | 1280x720 | .MKV/AVC @ 3255 Kbps | 48 min 14 s | 1.12 GiB
Audio: English AAC 64 kbps, 2 channels | Subs: None
Genre: Documentary

Starting from Asahikawa, the 2nd largest city in Hokkaido, we will ride toward the Shiretoko Peninsula World Heritage Site. During 520km journey, we are going to meet people who live close to the nature in Hokkaido. We will visit the community of Ainu, an indigenous people of Japan. They still live in this region and struggle with maintaining their tradition and Ainu's way of life. You may find a mysterious lake near the Ainu's village where the water changes its color reflecting the sunshine. Our destination, the Shiretoko Peninsula is one of the most remote regions in all of Japan. The word "Shiretoko" is derived from an Ainu word, meaning "the place where the earth protrudes". The Shiretoko Peninsula is home to diverse wildlife and UNESCO designated the area a World Heritage Site in 2005.


General
Unique ID : 177243624392524129356046752891026194072 (0x8557E15FBA1EDDF59E2ADF3E7786BE98)
Complete name : NHK.Cycle.Around.Japan.Autumn.Amidst.Mother.Nature.in.Hokkaido.720p.mkv
Format : Matroska
Format version : Version 4 / Version 2
File size : 1.12 GiB
Duration : 48 min 14 s
Overall bit rate : 3 321 kb/s

Video
ID : 1
Format : AVC
Format/Info : Advanced Video Codec
Format profile : High@L3.1
Format settings, CABAC : Yes
Format settings, ReFrames : 4 frames
Codec ID : V_MPEG4/ISO/AVC
Duration : 48 min 14 s
Bit rate : 3 255 kb/s
Width : 1 280 pixels
Height : 720 pixels
Display aspect ratio : 16:9
Frame rate mode : Constant
Frame rate : 25.000 FPS
Color space : YUV
Chroma subsampling : 4:2:0
Bit depth : 8 bits
Scan type : Progressive
Bits/(Pixel*Frame) : 0.141
Stream size : 1.10 GiB (98%)
Encoding settings : cabac=1 / ref=3 / deblock=1:0:0 / analyse=0x3:0x113 / me=umh / subme=9 / psy=1 / psy_rd=1.00:0.00 / mixed_ref=1 / me_range=24 / chroma_me=1 / trellis=1 / 8x8dct=1 / cqm=0 / deadzone=21,11 / fast_pskip=0 / chroma_qp_offset=-2 / threads=3 / lookahead_threads=1 / sliced_threads=0 / nr=0 / decimate=1 / interlaced=0 / bluray_compat=0 / constrained_intra=0 / bframes=6 / b_pyramid=2 / b_adapt=2 / b_bias=0 / direct=1 / weightb=1 / open_gop=0 / weightp=2 / keyint=250 / keyint_min=25 / scenecut=40 / intra_refresh=0 / rc_lookahead=40 / rc=crf / mbtree=1 / crf=20.0 / qcomp=0.60 / qpmin=0 / qpmax=69 / qpstep=4 / ip_ratio=1.40 / aq=1:1.00
Language : English
Default : Yes
Forced : No
Color range : Limited
Color primaries : BT.709
Transfer characteristics : BT.709
Matrix coefficients : BT.709

Audio
ID : 2
Format : AAC
Format/Info : Advanced Audio Codec
Format profile : HE-AAC / LC
Codec ID : A_AAC
Duration : 48 min 14 s
Bit rate : 64.0 kb/s
Channel(s) : 2 channels
Channel positions : Front: L R
Sampling rate : 48.0 kHz / 24.0 kHz
Frame rate : 23.438 FPS (1024 spf)
Compression mode : Lossy
Delay relative to video : 31 ms
Stream size : 22.1 MiB (2%)
Language : English
Default : Yes
Forced : No


Screenshots:

NHK - Cycle Around Japan: Autumn Amidst Mother Nature in Hokkaido (2017)

NHK - Cycle Around Japan: Autumn Amidst Mother Nature in Hokkaido (2017)

NHK - Cycle Around Japan: Autumn Amidst Mother Nature in Hokkaido (2017)

NHK - Cycle Around Japan: Autumn Amidst Mother Nature in Hokkaido (2017)