NHK Document 72 Hours - At a Train Station in Fukushima (2014)

Posted By: notbanned
NHK Document 72 Hours - At a Train Station in Fukushima (2014)

NHK Document 72 Hours - At a Train Station in Fukushima (2014)
HDTV | 1280x720 | .MP4/AVC @ 3693 Kbps | 24mn 30s | Audio: English AAC 111 kbps, 2 channels | Subs: English | 667 MiB
Genre: Documentary

Within 20km of the Fukushima Daiichi Nuclear Power Plant - site of the 2011 nuclear disaster - is the town of Naraha. The train line that passes through the town was closed after the disaster, but was reopened in June. Although residents are not legally allowed to stay in Naraha, a variety of people come and go from the town's Tatsuta Station. The program captures these visitors - who include residents making short visits, staff at the nearby Fukushima Daini Nuclear Power Plant, and travelers coming for their own reasons - over 3 days.


General
Complete name : NHK.Document.72.Hours.2014.At.a.Train.Station.in.Fukushima.mp4
Format : MPEG-4
Format profile : Base Media
Codec ID : isom
File size : 667 MiB
Duration : 24mn 30s
Overall bit rate mode : Variable
Overall bit rate : 3 808 Kbps

Video
ID : 1
Format : AVC
Format/Info : Advanced Video Codec
Format profile : High@L4.1
Format settings, CABAC : Yes
Format settings, ReFrames : 9 frames
Codec ID : avc1
Codec ID/Info : Advanced Video Coding
Duration : 24mn 30s
Bit rate : 3 693 Kbps
Maximum bit rate : 10.7 Mbps
Width : 1 280 pixels
Height : 720 pixels
Display aspect ratio : 16:9
Frame rate mode : Constant
Frame rate : 29.970 fps
Color space : YUV
Chroma subsampling : 4:2:0
Bit depth : 8 bits
Scan type : Progressive
Bits/(Pixel*Frame) : 0.134
Stream size : 647 MiB (97%)
Writing library : x264 core 148 r2579 73ae2d1
Encoding settings : cabac=1 / ref=9 / deblock=1:-1:-1 / analyse=0x3:0x133 / me=umh / subme=10 / psy=1 / psy_rd=1.00:0.00 / mixed_ref=1 / me_range=24 / chroma_me=1 / trellis=2 / 8x8dct=1 / cqm=0 / deadzone=21,11 / fast_pskip=1 / chroma_qp_offset=-2 / threads=9 / lookahead_threads=1 / sliced_threads=0 / nr=0 / decimate=1 / interlaced=0 / bluray_compat=0 / constrained_intra=0 / bframes=9 / b_pyramid=2 / b_adapt=2 / b_bias=0 / direct=3 / weightb=1 / open_gop=0 / weightp=2 / keyint=360 / keyint_min=29 / scenecut=40 / intra_refresh=0 / rc_lookahead=60 / rc=crf / mbtree=1 / crf=21.0 / qcomp=0.60 / qpmin=0 / qpmax=69 / qpstep=4 / vbv_maxrate=62500 / vbv_bufsize=78125 / crf_max=0.0 / nal_hrd=none / filler=0 / ip_ratio=1.40 / aq=1:1.00
Encoded date : UTC 2015-08-22 10:51:16
Tagged date : UTC 2015-08-22 11:14:39

Audio
ID : 2
Format : AAC
Format/Info : Advanced Audio Codec
Format profile : LC
Codec ID : 40
Duration : 24mn 30s
Bit rate mode : Variable
Bit rate : 111 Kbps
Maximum bit rate : 124 Kbps
Channel(s) : 2 channels
Channel positions : Front: L R
Sampling rate : 48.0 KHz
Compression mode : Lossy
Stream size : 19.4 MiB (3%)
Language : English
Encoded date : UTC 2015-08-22 11:11:48
Tagged date : UTC 2015-08-22 11:14:39


Screenshots:

NHK Document 72 Hours - At a Train Station in Fukushima (2014)

NHK Document 72 Hours - At a Train Station in Fukushima (2014)

NHK Document 72 Hours - At a Train Station in Fukushima (2014)

NHK Document 72 Hours - At a Train Station in Fukushima (2014)