NHK - Yufuin: No Quake Will Defeat Us (2016)

Posted By: notbanned
NHK - Yufuin: No Quake Will Defeat Us (2016)

NHK - Yufuin: No Quake Will Defeat Us (2016)
HDTV | 1280x720 | .MP4/AVC @ 3623 Kbps | 22 min 29 s | 599 MiB
Audio: English AAC 96 kbps, 2 channels | Subs: None
Genre: Documentary

Badly affected by the Kumamoto earthquakes of April 2016, the town of Yufuin, Oita Prefecture, one of Japan's top hot spring resorts, experienced a dramatic drop in visitor numbers. Desperate to revitalize the area, local inns and other businesses banded together with residents to rebuild. Last time Yufuin was hit by a major quake, 41 years ago, some residents established a traditional Japanese taiko drumming group to boost people's spirit in the midst of hardship. Those performers' activities once more took on renewed significance this August, at a summer festival held to bring energy and excitement back to the town. We follow a dedicated community looking to the future over a summer of rebuilding.


General
Complete name : NHK.Yufuin.No.Quake.Will.Defeat.Us.720p.mp4
Format : MPEG-4
Format profile : Base Media
Codec ID : isom (isom/iso2/avc1/mp41)
File size : 599 MiB
Duration : 22 min 29 s
Overall bit rate mode : Variable
Overall bit rate : 3 725 kb/s

Video
ID : 1
Format : AVC
Format/Info : Advanced Video Codec
Format profile : High@L4.1
Format settings, CABAC : No
Format settings, ReFrames : 1 frame
Format settings, GOP : M=1, N=12
Codec ID : avc1
Codec ID/Info : Advanced Video Coding
Duration : 22 min 29 s
Bit rate : 3 623 kb/s
Width : 1 280 pixels
Height : 720 pixels
Display aspect ratio : 16:9
Frame rate mode : Constant
Frame rate : 29.970 (29970/1000) FPS
Color space : YUV
Chroma subsampling : 4:2:0
Bit depth : 8 bits
Scan type : Progressive
Bits/(Pixel*Frame) : 0.131
Stream size : 583 MiB (97%)
Encoded date : UTC 2017-10-08 15:25:54
Tagged date : UTC 2017-10-08 15:25:54

Audio
ID : 2
Format : AAC
Format/Info : Advanced Audio Codec
Format profile : LC
Codec ID : 40
Duration : 22 min 29 s
Bit rate mode : Variable
Bit rate : 96.0 kb/s
Channel(s) : 2 channels
Channel positions : Front: L R
Sampling rate : 48.0 kHz
Frame rate : 46.875 FPS (1024 spf)
Compression mode : Lossy
Stream size : 15.5 MiB (3%)
Language : English
Encoded date : UTC 2017-10-08 15:25:54
Tagged date : UTC 2017-10-08 15:25:54


Screenshots:

NHK - Yufuin: No Quake Will Defeat Us (2016)

NHK - 			  		 	 	  		 	    	 			   			     		  	   	 			   		   	  		   	  		  	   	 			   		   	  			  	  		  					 Yufuin: No Quake Will Defeat Us (2016)

NHK - Yufuin: No Quake Will Defeat Us (2016)

NHK - Yufuin: No Quake Will Defeat Us (2016)