Nadia Comaneci the Gymnast and the Dictator (2016)

Posted By: Tutorial
Nadia Comaneci the Gymnast and the Dictator (2016)

Nadia Comaneci the Gymnast and the Dictator (2016)
WEBRip | 1920 x 1080 | .MKV/AVC @ 11.0 Mbps | 56 min 26 s | 4.41GB
Audio: English E-AC-3 224 Kbps, 2 channels | Subs: English
Genre: Documentary

Nadia Comăneci is a former Romanian gymnast, winner of three gold medals at the 1976 Summer Olympics in Montreal and the first gymnast to be awarded a perfect score of 10 in an Olympic gymnastics event. She also won two gold medals at the 1980 Summer Olympics in Moscow.
She is one of the best-known gymnasts in the world. Her life was one of sacrifice, hardship, dedication and triumph played against the backdrop of a brutal Communist regime in her home country. Based on her own memoir, this documentary tells the amazing story of her life from the young girl in Romania who was discovered when doing cartwheels in her school playground, to the poised young woman who made a break for freedom and eventually made a life for herself away from gymnastics.

Director: Pola Rapaport
Stars: Nadia Comaneci, Nicolae Ceausescu, Anda Onesa Lieberman

More info: IMDB

General
Unique ID : 205863718126985894915375891262565571773 (0x9ADFE8F08A840507A056760B8190DCBD)
Complete name : Nadia.Comaneci.The.Gymnast.and.the.Dictator.2016.mkv
Format : Matroska
Format version : Version 4 / Version 2
File size : 4.41 GiB
Duration : 56 min 26 s
Overall bit rate mode : Variable
Overall bit rate : 11.2 Mb/s
Encoded date : UTC 2017-09-27 00:56:05
Writing application : mkvmerge v13.0.0 ('The Juggler') 64bit
Writing library : libebml v1.3.4 + libmatroska v1.4.5

Video
ID : 1
Format : AVC
Format/Info : Advanced Video Codec
Format profile : High@L4
Format settings, CABAC : Yes
Format settings, ReFrames : 4 frames
Codec ID : V_MPEG4/ISO/AVC
Duration : 56 min 26 s
Bit rate mode : Variable
Bit rate : 11.0 Mb/s
Maximum bit rate : 15.0 Mb/s
Width : 1 920 pixels
Height : 1 080 pixels
Display aspect ratio : 16:9
Frame rate mode : Constant
Frame rate : 25.000 FPS
Color space : YUV
Chroma subsampling : 4:2:0
Bit depth : 8 bits
Scan type : Progressive
Bits/(Pixel*Frame) : 0.212
Stream size : 4.32 GiB (98%)
Default : Yes
Forced : No
Color range : Limited
Color primaries : BT.709
Transfer characteristics : BT.709
Matrix coefficients : BT.709

Audio
ID : 2
Format : E-AC-3
Format/Info : Enhanced Audio Coding 3
Format settings, Endianness : Big
Codec ID : A_EAC3
Duration : 56 min 26 s
Bit rate mode : Constant
Bit rate : 224 kb/s
Channel(s) : 2 channels
Channel positions : Front: L R
Sampling rate : 48.0 kHz
Frame rate : 187.500 FPS (256 spf)
Compression mode : Lossy
Stream size : 90.4 MiB (2%)
Language : English
Service kind : Complete Main
Default : Yes
Forced : No

Text
ID : 3
Format : UTF-8
Codec ID : S_TEXT/UTF8
Codec ID/Info : UTF-8 Plain Text
Duration : 56 min 26 s
Bit rate : 77 b/s
Count of elements : 914
Stream size : 32.1 KiB (0%)
Language : English
Default : No
Forced : No
Screenshots

Nadia Comaneci the Gymnast and the Dictator (2016)

Nadia Comaneci the Gymnast and the Dictator (2016)

Nadia Comaneci the Gymnast and the Dictator (2016)

Welcome to my blog - daily update!

Nadia Comaneci the Gymnast and the Dictator (2016)