BBC - National Gallery: A Film by Frederick Wiseman (2015) [Repost]

Posted By: Tutorial
BBC - National Gallery: A Film by Frederick Wiseman (2015) [Repost]

BBC - National Gallery: A Film by Frederick Wiseman (2015)
HDTV | 1280 x 720 | .MP4/AVC @ 3500 Kbps | 2h 53mn | 2.90 GB
Audio: English AAC 93.5 Kbps, 2 channels | Subs: English
Genre: Documentary, Arts

Filmmaker Frederick Wiseman goes behind the scenes at the National Gallery in a journey to the heart of a museum inhabited by masterpieces of Western art from the Middle Ages to the 19th century. This three-hour epic has no voiceover, no score and no added sound effects. Combining a vivid sense of how vast the gallery's many activities are with an eye for droll observational detail, the film reveals how the gallery works and its relations with its staff, public and paintings.

General
Complete name : National.Gallery.mp4
Format : MPEG-4
Format profile : Base Media
Codec ID : isom
File size : 2.90 GiB
Duration : 2h 53mn
Overall bit rate mode : Variable
Overall bit rate : 2 397 Kbps
Encoded date : UTC 2015-05-05 13:22:43
Tagged date : UTC 2015-05-05 13:22:43

Video
ID : 1
Format : AVC
Format/Info : Advanced Video Codec
Format profile : High@L4.1
Format settings, CABAC : Yes
Format settings, ReFrames : 2 frames
Codec ID : avc1
Codec ID/Info : Advanced Video Coding
Duration : 2h 53mn
Bit rate mode : Variable
Bit rate : 2 198 Kbps
Maximum bit rate : 3 500 Kbps
Width : 1 280 pixels
Height : 720 pixels
Display aspect ratio : 16:9
Frame rate mode : Constant
Frame rate : 25.000 fps
Color space : YUV
Chroma subsampling : 4:2:0
Bit depth : 8 bits
Scan type : Progressive
Bits/(Pixel*Frame) : 0.095
Stream size : 2.66 GiB (92%)
Tagged date : UTC 2015-05-05 13:25:02
Material_Duration : 10407840
Material_StreamSize : 2991923159
Material_FrameCount : 260196

Audio
ID : 2
Format : AAC
Format/Info : Advanced Audio Codec
Format profile : LC
Codec ID : 40
Duration : 2h 53mn
Bit rate mode : Variable
Bit rate : 93.5 Kbps
Maximum bit rate : 96.8 Kbps
Channel(s) : 2 channels
Channel positions : Front: L R
Sampling rate : 48.0 KHz
Compression mode : Lossy
Stream size : 116 MiB (4%)
Tagged date : UTC 2015-05-05 13:25:02

Text
ID : 3
Format : Timed text
Codec ID : tx3g
Duration : 2h 48mn
Bit rate mode : Variable
Bit rate : 94 bps
Stream size : 115 KiB (0%)
Title : *srt:lang=eng:disable@GPAC0.5.2-DEV-rev229-g247d8cf-master
Language : English
Encoded date : UTC 2015-05-05 13:25:02
Tagged date : UTC 2015-05-05 13:25:02
Screenshots

BBC - National Gallery: A Film by Frederick Wiseman (2015) [Repost]

BBC - National Gallery: A Film by Frederick Wiseman (2015) [Repost]

BBC - National Gallery: A Film by Frederick Wiseman (2015) [Repost]

BBC - National Gallery: A Film by Frederick Wiseman (2015) [Repost]

BBC - National Gallery: A Film by Frederick Wiseman (2015) [Repost]

Welcome to my blog - daily update!

BBC - National Gallery: A Film by Frederick Wiseman (2015) [Repost]