National Geographic - Area 51: The CIA's Secret Files (2014)

Posted By: notbanned
National Geographic - Area 51: The CIA's Secret Files (2014)

National Geographic - Area 51: The CIA's Secret Files (2014)
HDTV | 1280x720 | .MP4/AVC @ 3026 Kbps | 43 min 58 s | 1004 MiB
Audio: English AAC 160 kbps, 2 channels | Subs: None
Genre: Documentary

Area 51: The CIA’s Secret Files covers the true story of ground-breaking research into aviation that took place at the Groom Lake Testing Facility, otherwise known as Area 51, which ensured US Aerial supremacy from the Cold War through to the present day. Utilising CIA documents that have recently been declassified this programme identifies specific individuals who worked at the top secret base in a variety of roles – the radar specialists, pilots and security guards. Their personal testimonies provide a unique impression not just of the work that was carried out, but of the site itself. We reveal just how tight security had to be to keep the development of the U2, A12 and HAVE BLUE aviation programmes under wraps. This is a film that concentrates on delivering history and factual accuracy in a fresh and engaging style – one that answers the question ‘what really happened at Area 51’?


General
Complete name : National.Geographic.Area.51.The.CIAs.Secret.Files.720p.mp4
Format : MPEG-4
Format profile : Base Media
Codec ID : isom (isom/iso2/avc1/mp41)
File size : 1 004 MiB
Duration : 43 min 58 s
Overall bit rate mode : Variable
Overall bit rate : 3 191 kb/s

Video
ID : 1
Format : AVC
Format/Info : Advanced Video Codec
Format profile : High@L4.1
Format settings, CABAC : No
Format settings, ReFrames : 1 frame
Format settings, GOP : M=1, N=12
Codec ID : avc1
Codec ID/Info : Advanced Video Coding
Duration : 43 min 58 s
Bit rate : 3 026 kb/s
Width : 1 280 pixels
Height : 720 pixels
Display aspect ratio : 16:9
Frame rate mode : Constant
Frame rate : 25.000 FPS
Color space : YUV
Chroma subsampling : 4:2:0
Bit depth : 8 bits
Scan type : Progressive
Bits/(Pixel*Frame) : 0.131
Stream size : 952 MiB (95%)
Language : English
Encoded date : UTC 2014-12-01 21:37:25
Tagged date : UTC 2014-12-01 21:37:25

Audio
ID : 2
Format : AAC
Format/Info : Advanced Audio Codec
Format profile : LC
Codec ID : 40
Duration : 43 min 58 s
Bit rate mode : Variable
Bit rate : 160 kb/s
Channel(s) : 2 channels
Channel positions : Front: L R
Sampling rate : 48.0 kHz
Frame rate : 46.875 FPS (1024 spf)
Compression mode : Lossy
Stream size : 50.3 MiB (5%)
Encoded date : UTC 2014-12-01 21:37:25
Tagged date : UTC 2014-12-01 21:37:25


Screenshots:

National Geographic - Area 51: The CIA's Secret Files (2014)

National Geographic - Area 51: The CIA's Secret Files (2014)

National Geographic - Area 51: The CIA's Secret Files (2014)

National Geographic - Area 51: The CIA's Secret Files (2014)