National Geographic - Hitlers Death Army: Das Reich (2015)

Posted By: notbanned
National Geographic - Hitlers Death Army: Das Reich (2015)

National Geographic - Hitlers Death Army: Das Reich (2015)
HDTV | 1280x720 | .MP4/AVC @ 3000 Kbps | 2x~44min | 1.96 GiB
Audio: English AAC 160 kbps, 2 channels | Subs: None
Genre: Documentary

As the Allies storm the beaches of Normandy, Hitler orders the return of the Das Reich, the infamous Panzer elite division best known for its mass murders in the Ukraine and in Belarus, based at that time in southwest of France. Its mission: to push the Allies back into the Atlantic and turn the tide of the conflict in favor of the Germans. The SS division, with 15,000 men and more than 200 tanks, faces relentless attacks from the Resistance as it moves north through France. Along the way, it conducts vicious reprisals and massacres of civilians (Oradour-sur-Glane, Tulle). The film will retrace the last year of Hitler’s death squad and their crimes against humanity. We will follow the everyday lives of these SS officers, their recruitment and training on the Eastern Front, and try to understand who exactly were these men who perpetrated the massacres.
Part 1:
In the final year of the Second World War, the infamous Panzer elite division Das Reich was known for its mass murders on the Eastern Front.

Part 2:
With 15,000 men and more than 200 tanks, Das Reich took six days to reach Normandy from the south of France, massacring civilians along the way.


General
Complete name : National.Geographic.Hitlers.Death.Army.Das.Reich.1of2.720p.mp4
Format : MPEG-4
Format profile : Base Media / Version 2
Codec ID : mp42 (isom/iso2/avc1/mp41)
File size : 1 005 MiB
Duration : 44 min 30 s
Overall bit rate mode : Variable
Overall bit rate : 3 157 kb/s

Video
ID : 1
Format : AVC
Format/Info : Advanced Video Codec
Format profile : High@L4.1
Format settings, CABAC : Yes
Format settings, ReFrames : 4 frames
Codec ID : avc1
Codec ID/Info : Advanced Video Coding
Duration : 44 min 30 s
Bit rate : 3 000 kb/s
Width : 1 280 pixels
Height : 720 pixels
Display aspect ratio : 16:9
Frame rate mode : Constant
Frame rate : 25.000 FPS
Color space : YUV
Chroma subsampling : 4:2:0
Bit depth : 8 bits
Scan type : Progressive
Bits/(Pixel*Frame) : 0.130
Stream size : 952 MiB (95%)
Writing library : x264 core 142 r2479 dd79a61
Encoding settings : cabac=1 / ref=2 / deblock=1:0:0 / analyse=0x3:0x113 / me=hex / subme=6 / psy=1 / psy_rd=1.00:0.00 / mixed_ref=1 / me_range=16 / chroma_me=1 / trellis=1 / 8x8dct=1 / cqm=0 / deadzone=21,11 / fast_pskip=1 / chroma_qp_offset=-2 / threads=3 / lookahead_threads=1 / sliced_threads=0 / nr=0 / decimate=1 / interlaced=0 / bluray_compat=0 / constrained_intra=0 / bframes=3 / b_pyramid=2 / b_adapt=1 / b_bias=0 / direct=1 / weightb=1 / open_gop=0 / weightp=1 / keyint=250 / keyint_min=25 / scenecut=40 / intra_refresh=0 / rc_lookahead=30 / rc=abr / mbtree=1 / bitrate=3000 / ratetol=1.0 / qcomp=0.60 / qpmin=0 / qpmax=69 / qpstep=4 / vbv_maxrate=62500 / vbv_bufsize=78125 / nal_hrd=none / filler=0 / ip_ratio=1.40 / aq=1:1.00
Color range : Limited
Color primaries : BT.709
Transfer characteristics : BT.709
Matrix coefficients : BT.709

Audio
ID : 2
Format : AAC
Format/Info : Advanced Audio Codec
Format profile : LC
Codec ID : 40
Duration : 44 min 29 s
Bit rate mode : Variable
Bit rate : 160 kb/s
Channel(s) : 2 channels
Channel positions : Front: L R
Sampling rate : 48.0 kHz
Frame rate : 46.875 FPS (1024 spf)
Compression mode : Lossy
Stream size : 51.0 MiB (5%)
Title : Stereo / Stereo
Default : Yes
Alternate group : 1


Screenshots:

National Geographic - Hitlers Death Army: Das Reich (2015)

National Geographic - Hitlers Death Army: Das Reich (2015)

National Geographic - Hitlers Death Army: Das Reich (2015)

National Geographic - Hitlers Death Army: Das Reich (2015)