National Geographic - Kissinger (2010)

Posted By: notbanned
National Geographic - Kissinger (2010)

National Geographic - Kissinger (2010)
HDTV | 1278x720 | .MKV/AVC @ 3082 Kbps | 1h 29mn | Audio: English AC3 384 kbps, 6 channels | Subs: None | 2.22 GiB
Genre: Documentary

Gain a unique insight into the political figure who, more than any other individual, shaped the United States post-war foreign policy. With Nixon embroiled in Watergate, Henry Kissinger was for a time the world's most powerful man. Even after leaving office he continued to act as counselor to successive presidents as well as governments around the globe. For many though, Kissinger is implicated in war crimes allegedly committed with his knowledge in countries from Cambodia to Chile. Historian Niall Ferguson is given exclusive access to conduct the definitive interview with the world’s most famed political advisor and the arch proponent of realpolitik. Kissinger clearly hoped his involvement in this film would be both a historical testament and final exoneration of his part in the United States destructive actions, yet this unflinching film captures a man uneasy with his devastating legacy. Assembled from more than 20 hours of interview footage, the profile peels away the mystique around the man who remains one of the most controversial figures in global politics.


General
Unique ID : 127398426381176939588181772643064171041 (0x5FD80B5F5731BDDF9298EAFC02494A21)
Complete name : National.Geographic.Kissinger.mkv
Format : Matroska
Format version : Version 2
File size : 2.22 GiB
Duration : 1h 29mn
Overall bit rate : 3 536 Kbps

Video
ID : 1
Format : AVC
Format/Info : Advanced Video Codec
Format profile : High@L4.1
Format settings, CABAC : Yes
Format settings, ReFrames : 5 frames
Codec ID : V_MPEG4/ISO/AVC
Duration : 1h 29mn
Bit rate : 3 082 Kbps
Width : 1 278 pixels
Height : 720 pixels
Display aspect ratio : 16:9
Frame rate : 25.000 fps
Color space : YUV
Chroma subsampling : 4:2:0
Bit depth : 8 bits
Scan type : Progressive
Bits/(Pixel*Frame) : 0.134
Stream size : 1.94 GiB (87%)
Writing library : x264 core 116 r2074 2641b9e
Encoding settings : cabac=1 / ref=5 / deblock=1:0:0 / analyse=0x3:0x113 / me=umh / subme=8 / psy=1 / psy_rd=1.00:0.00 / mixed_ref=1 / me_range=16 / chroma_me=1 / trellis=1 / 8x8dct=1 / cqm=0 / deadzone=21,11 / fast_pskip=1 / chroma_qp_offset=-2 / threads=12 / sliced_threads=0 / nr=0 / decimate=1 / interlaced=0 / bluray_compat=0 / constrained_intra=0 / bframes=3 / b_pyramid=2 / b_adapt=2 / b_bias=0 / direct=3 / weightb=1 / open_gop=0 / weightp=2 / keyint=250 / keyint_min=25 / scenecut=40 / intra_refresh=0 / rc_lookahead=50 / rc=crf / mbtree=1 / crf=20.0 / qcomp=0.60 / qpmin=0 / qpmax=69 / qpstep=4 / ip_ratio=1.40 / aq=1:1.00
Language : English
Default : No
Forced : No

Audio
ID : 2
Format : AC-3
Format/Info : Audio Coding 3
Mode extension : CM (complete main)
Format settings, Endianness : Big
Codec ID : A_AC3
Duration : 1h 29mn
Bit rate mode : Constant
Bit rate : 384 Kbps
Channel(s) : 6 channels
Channel positions : Front: L C R, Side: L R, LFE
Sampling rate : 48.0 KHz
Bit depth : 16 bits
Compression mode : Lossy
Stream size : 247 MiB (11%)
Default : Yes
Forced : No


Screenshots:

National Geographic - Kissinger (2010)

National Geographic - Kissinger (2010)

National Geographic - Kissinger (2010)

National Geographic - Kissinger (2010)

National Geographic - Kissinger (2010)