Subcategories

National Geographic - Mystery of the Lynx (2012)

Posted By: notbanned
National Geographic - Mystery of the Lynx (2012)

National Geographic - Mystery of the Lynx (2012)
HDTV | 1280x720 | .MP4/AVC @ 3430 Kbps | 43mn 44s | Audio: English AAC 160 kbps, 2 channels | Subs: English | 1.10 GiB
Genre: Documentary

This is the story of a species in extremis: The Iberian lynx is probably the world’s most beautiful cat. Yet it may well be the most unknown. It’s certainly the world’s most endangered and rarest cat – on the very brink of extinction. But, at the very last moment, the Iberian lynx is now making a tentative comeback – with more than just a little help from its friends. The program for the reintroduction of the Iberian lynx has been risky and intensive, bringing together an impressive workforce of international experts. Meanwhile, it’s a reference project of global importance since it profits not only the Iberian lynx but a score of related wildlife species. This TV show beautifully portrays Iberia’s charismatic big cat, a specialised rabbit hunter, in its habitat – the most stunning and wildest landscapes of southern Spain. The leap of the Iberian lynx back from hopelessness into a sustainable future is a truly inspiring drama about the future co-existence of humans and wildlife.


General
Complete name : National.Geographic.Mystery.Of.The.Lynx.mp4
Format : MPEG-4
Format profile : Base Media
Codec ID : isom
File size : 1.10 GiB
Duration : 43mn 44s
Overall bit rate mode : Variable
Overall bit rate : 3 594 Kbps

Video
ID : 1
Format : AVC
Format/Info : Advanced Video Codec
Format profile : High@L4.1
Format settings, CABAC : No
Format settings, ReFrames : 1 frame
Format settings, GOP : M=1, N=12
Codec ID : avc1
Codec ID/Info : Advanced Video Coding
Duration : 43mn 44s
Bit rate : 3 430 Kbps
Width : 1 280 pixels
Height : 720 pixels
Display aspect ratio : 16:9
Frame rate mode : Constant
Frame rate : 25.000 fps
Color space : YUV
Chroma subsampling : 4:2:0
Bit depth : 8 bits
Scan type : Progressive
Bits/(Pixel*Frame) : 0.149
Stream size : 1.05 GiB (95%)
Language : English
Encoded date : UTC 2015-03-05 16:25:17
Tagged date : UTC 2015-03-05 16:25:17

Audio
ID : 2
Format : AAC
Format/Info : Advanced Audio Codec
Format profile : LC
Codec ID : 40
Duration : 43mn 44s
Bit rate mode : Variable
Bit rate : 160 Kbps
Channel(s) : 2 channels
Channel positions : Front: L R
Sampling rate : 48.0 KHz
Compression mode : Lossy
Stream size : 50.1 MiB (4%)
Encoded date : UTC 2015-03-05 16:25:17
Tagged date : UTC 2015-03-05 16:25:17


Screenshots:

National Geographic - Mystery of the Lynx (2012)

National Geographic - Mystery of the Lynx (2012)

National Geographic - Mystery of the Lynx (2012)

National Geographic - Mystery of the Lynx (2012)