Subcategories

National Geographic - Riddles of the Bible: Season 2 (2010)

Posted By: Tutorial
National Geographic - Riddles of the Bible: Season 2 (2010)

National Geographic - Riddles of the Bible: Season 2 (2010)
DVDRip | 704 x 400 | .AVI/XviD @ 1872 Kbps | 4x~47mn | 2.73 GB
Audio: English AC-3 192 Kbps, 2 channels | Subs: None
Genre: Documentary, History

Today, biblical archaeologists and scholars rub shoulders with scientists. They're all scouring the globe for the most elusive and controversial goal in biblical research, to find out whether or not the stories of the Bible are based on real events.
Part 1: Dead Sea Scrolls
Nearly sixty years after their discovery; some scholars argue the Dead Sea Scrolls continue to pose more questions than they can answer. Join National Geographic as they examine what the latest science and archaeology tells us of the history and meaning of the Dead Sea Scrolls.

Part 2: Lost Cities
A tale of two cities gone bad: Sodom and Gomorrah destroyed as God's retribution for scandalous sin. Then, God sides with Joshua to conquer another city: Jericho. Are these Bible stories fact or moral fable? Biblical scholars and scientists look to archaeological and geological evidence to uncover the mysteries of these Lost Cities.

Part 3: Kings of Israel
David and Goliath. Few haven't heard of the small boy who legend says brought down Goliath the giant with a slingshot. Join National Geographic as they investigate the meaning behind an artefact that lends the story a historical foundation. Then follow a trail of evidence that may provide tantalising proof of the lives of King David and Solomon.

Part 4: Hunt for the Ark of the Covernant
Perhaps the greatest biblical riddle ever. The Ark of the Covenant was terrifying beyond belief - consuming those who sought to look upon it in fire or disfiguring them with tumours and leprosy. Then it simply vanished. Join National Geographic on an epic scholarly journey in search of the truth behind one of the most coveted artefacts of the Bible.

Related Documentaries:
The Bible (2013)
Catholicism (2011)
Channel 4 - Crucifixion (2012)
BBC - Bible's Buried Secrets (2011)
BBC - Jesus: The Real Story (2001)
ZDF - The Biblical Plagues: Series 1 (2014)
Discovery Channel - The Lost Tomb of Jesus (2007)
National Geographic - The Jesus Mysteries (2014)
Smithsonian Channel - The Gospel of Jesus's Wife (2014)
National Geographic - The Ten Plagues of the Bible (2008)
History Channel - The Egyptian Book of the Dead (2006)
CNN - Finding Jesus: Faith Fact Forgery (2015)
BBC - A History of Christianity (2009)


General
Complete name : National.Geographic.Riddles.of.the.Bible.Season.2.1of4.Dead.Sea.Scrolls.avi
Format : AVI
Format/Info : Audio Video Interleave
File size : 701 MiB
Duration : 47 min 20 s
Overall bit rate : 2 071 kb/s
Writing application : VirtualDubMod 1.5.4.1 (build 2178/release)
Writing library : VirtualDubMod build 2178/release

Video
ID : 0
Format : MPEG-4 Visual
Format profile : Advanced Simple@L5
Format settings, BVOP : 1
Format settings, QPel : No
Format settings, GMC : No warppoints
Format settings, Matrix : Custom
Codec ID : XVID
Codec ID/Hint : XviD
Duration : 47 min 20 s
Bit rate : 1 872 kb/s
Width : 704 pixels
Height : 400 pixels
Display aspect ratio : 16:9
Frame rate : 25.000 FPS
Color space : YUV
Chroma subsampling : 4:2:0
Bit depth : 8 bits
Scan type : Progressive
Compression mode : Lossy
Bits/(Pixel*Frame) : 0.266
Stream size : 634 MiB (90%)
Writing library : XviD 1.2.1 (UTC 2008-12-04)

Audio
ID : 1
Format : AC-3
Format/Info : Audio Coding 3
Format settings, Endianness : Big
Codec ID : 2000
Duration : 47 min 20 s
Bit rate mode : Constant
Bit rate : 192 kb/s
Channel(s) : 2 channels
Channel positions : Front: L R
Sampling rate : 48.0 kHz
Frame rate : 31.250 FPS (1536 spf)
Bit depth : 16 bits
Compression mode : Lossy
Stream size : 65.0 MiB (9%)
Alignment : Split accross interleaves
Interleave, duration : 96 ms (2.40 video frames)
Interleave, preload duration : 96 ms
Service kind : Complete Main
Screenshots

National Geographic - Riddles of the Bible: Season 2 (2010)

National Geographic - Riddles of the Bible: Season 2 (2010)

National Geographic - Riddles of the Bible: Season 2 (2010)

National Geographic - Riddles of the Bible: Season 2 (2010)

Welcome to my blog - daily update!

National Geographic - Riddles of the Bible: Season 2 (2010)