The Hero / Nayak (1966)

Posted By: RSU75
SD / DVDRip IMDb
The Hero / Nayak (1966)

The Hero / Nayak (1966) [Criterion Collection, Spine #911]
DVDRip | MKV | 1hr 57mn | AVC, ~1,7 Mbps | 720x480 | 1.72 Gb
Bengali: Dolby AC3, 1 ch, 384 kbps
Subtitles: English
Genre: Drama
IMDB Rating: 8.3/10 (2.175 votes)
Criterion.com


Director: Satyajit Ray
Writers: Satyajit Ray (story), Satyajit Ray (screenplay)
Stars: Uttam Kumar, Sharmila Tagore, Bireswar Sen

In this psychologically rich character study, written and directed by Satyajit Ray, Bengali film star Uttam Kumar draws on his real-world celebrity to play Arindam Mukherjee, a matinee idol on the brink of his first flop. When Mukherjee boards an overnight train to Delhi to accept an award, a journalist (Sharmila Tagore) approaches him seeking an exclusive interview, which initiates a conversation that sends the actor reeling down a path of self-examination. Seamlessly integrating rueful flashbacks and surreal dream sequences with the quietly revelatory stories of the train’s other passengers, The Hero is a graceful meditation on art, fame, and regret from one of world cinema’s most keenly perceptive filmmakers.




General
Unique ID : 201908010276309019773167385264671245655 (0x97E6117C20884D3199F9F0D6D5314557)
Complete name : M:\Nayak.66.Cr.Dr\Nayak.66.Cr.Dr.mkv
Format : Matroska
Format version : Version 4 / Version 2
File size : 1.72 GiB
Duration : 1 h 57 min
Overall bit rate : 2 092 kb/s
Movie name : Release RSU75
Encoded date : UTC 2018-03-20 04:19:47
Writing application : mkvmerge v6.6.0 ('The Edge Of The In Between') built on Dec 1 2013 17:55:00
Writing library : libebml v1.3.0 + libmatroska v1.4.1

Video
ID : 1
Format : AVC
Format/Info : Advanced Video Codec
Format profile : High@L3
Format settings : CABAC / 4 Ref Frames
Format settings, CABAC : Yes
Format settings, RefFrames : 4 frames
Codec ID : V_MPEG4/ISO/AVC
Duration : 1 h 57 min
Bit rate : 1 700 kb/s
Width : 720 pixels
Height : 480 pixels
Display aspect ratio : 4:3
Frame rate mode : Constant
Frame rate : 23.976 (23976/1000) FPS
Color space : YUV
Chroma subsampling : 4:2:0
Bit depth : 8 bits
Scan type : Progressive
Bits/(Pixel*Frame) : 0.205
Stream size : 1.37 GiB (80%)
Writing library : x264 core 144 r2533 c8a773e
Encoding settings : cabac=1 / ref=4 / deblock=1:0:0 / analyse=0x3:0x113 / me=umh / subme=8 / psy=1 / psy_rd=1.00:0.00 / mixed_ref=1 / me_range=24 / chroma_me=1 / trellis=1 / 8x8dct=1 / cqm=0 / deadzone=21,11 / fast_pskip=1 / chroma_qp_offset=-2 / threads=3 / lookahead_threads=1 / sliced_threads=0 / nr=0 / decimate=1 / interlaced=0 / bluray_compat=0 / constrained_intra=0 / bframes=3 / b_pyramid=0 / b_adapt=2 / b_bias=0 / direct=3 / weightb=1 / open_gop=0 / weightp=2 / keyint=250 / keyint_min=25 / scenecut=40 / intra_refresh=0 / rc_lookahead=40 / rc=abr / mbtree=1 / bitrate=1700 / ratetol=1.0 / qcomp=0.60 / qpmin=10 / qpmax=51 / qpstep=4 / ip_ratio=1.41 / aq=1:1.00
Language : English
Default : Yes
Forced : No

Audio
ID : 2
Format : AC-3
Format/Info : Audio Coding 3
Format settings, Endianness : Big
Codec ID : A_AC3
Duration : 1 h 57 min
Bit rate mode : Constant
Bit rate : 384 kb/s
Channel(s) : 1 channel
Channel positions : Front: C
Sampling rate : 48.0 kHz
Frame rate : 31.250 FPS (1536 SPF)
Bit depth : 16 bits
Compression mode : Lossy
Delay relative to video : -42 ms
Stream size : 322 MiB (18%)
Language : Bengali
Service kind : Complete Main
Default : Yes
Forced : No

Text
ID : 3
Format : VobSub
Muxing mode : zlib
Codec ID : S_VOBSUB
Codec ID/Info : Picture based subtitle format used on DVDs
Language : English
Default : Yes
Forced : No

Menu
00:00:00.000 : en:Chapter 01
00:05:25.858 : en:Chapter 02
00:08:35.214 : en:Chapter 03
00:09:35.741 : en:Chapter 04
00:13:34.847 : en:Chapter 05
00:16:27.686 : en:Chapter 06
00:19:44.550 : en:Chapter 07
00:23:08.920 : en:Chapter 08
00:29:11.616 : en:Chapter 09
00:32:31.950 : en:Chapter 10
00:36:17.675 : en:Chapter 11
00:41:36.494 : en:Chapter 12
00:44:43.881 : en:Chapter 13
00:50:59.389 : en:Chapter 14
00:57:24.441 : en:Chapter 15
01:02:54.437 : en:Chapter 16
01:07:05.054 : en:Chapter 17
01:12:09.658 : en:Chapter 18
01:14:21.457 : en:Chapter 19
01:21:41.563 : en:Chapter 20
01:25:54.649 : en:Chapter 21
01:31:30.651 : en:Chapter 22
01:35:34.061 : en:Chapter 23
01:38:57.097 : en:Chapter 24
01:47:44.624 : en:Chapter 25
01:51:08.662 : en:Chapter 26




Screenshots (click to enlarge to original size):

The Hero / Nayak (1966)

The Hero / Nayak (1966)

The Hero / Nayak (1966)


The Hero / Nayak (1966)





–––––––––––––––––––––––––––––––––––––––-
>>> "Criterion Collection" <<< OR >>> "DVDRip" <<< OR >>> "Satyajit Ray" <<<
–––––––––––––––––––––––––––––––––––––––-
>>> Visit Blog RSU75 Here <<<
–––––––––––––––––––––––––––––––––––––––-