Neo Rauch - Comrades and Companions (2016)

Posted By: Tavaz
Neo Rauch - Comrades and Companions (2016)

Neo Rauch - Comrades and Companions (2016)
BDRip | MKV | 720x404 | French | Sub: French | H264 @ 756 kbps | AAC @ 127 kb/s | 1 h 44 min | 665 MiB
Genre: Documentary

The German cinema director Nicola Graef created during a time period of three years the movie “Neo Rauch – comrades & companions” (Original title: Neo Rauch, Gefährten und Begleiter). She found an intimate access to the German artist, interviewed comrades like the gallery owners Gerd Harry Lybke or David Zwirner and important collectors.


General
Unique ID : 207267820058670828698122844344117090109 (0x9BEE548279860D76A787A78517EBD73D)
Complete name : ./airdocs-neo.rauch_bdrip.mkv
Format : Matroska
Format version : Version 4 / Version 2
File size : 665 MiB
Duration : 1 h 44 min
Overall bit rate : 886 kb/s
Encoded date : UTC 2017-09-29 18:18:14
Writing application : mkvmerge v8.4.0 ('A better way to fly') 32bit
Writing library : libebml v1.3.1 + libmatroska v1.4.2

Video
ID : 1
Format : AVC
Format/Info : Advanced Video Codec
Format profile : High@L3.1
Format settings : CABAC / 8 Ref Frames
Format settings, CABAC : Yes
Format settings, RefFrames : 8 frames
Codec ID : V_MPEG4/ISO/AVC
Duration : 1 h 44 min
Bit rate : 756 kb/s
Width : 720 pixels
Height : 404 pixels
Display aspect ratio : 16:9
Frame rate mode : Constant
Frame rate : 24.000 FPS
Color space : YUV
Chroma subsampling : 4:2:0
Bit depth : 8 bits
Scan type : Progressive
Bits/(Pixel*Frame) : 0.108
Stream size : 567 MiB (85%)
Title : AiRDOCS - Neo Rauch Comrades and Companions - BDRip
Writing library : x264 core 152 r2851 ba24899
Encoding settings : cabac=1 / ref=8 / deblock=1:0:0 / analyse=0x3:0x133 / me=umh / subme=9 / psy=1 / psy_rd=1.00:0.00 / mixed_ref=1 / me_range=24 / chroma_me=1 / trellis=2 / 8x8dct=1 / cqm=0 / deadzone=21,11 / fast_pskip=0 / chroma_qp_offset=-2 / threads=12 / lookahead_threads=1 / sliced_threads=0 / nr=0 / decimate=1 / interlaced=0 / bluray_compat=0 / constrained_intra=0 / bframes=5 / b_pyramid=2 / b_adapt=2 / b_bias=0 / direct=3 / weightb=1 / open_gop=0 / weightp=2 / keyint=250 / keyint_min=25 / scenecut=40 / intra_refresh=0 / rc_lookahead=60 / rc=crf / mbtree=1 / crf=19.0 / qcomp=0.60 / qpmin=0 / qpmax=69 / qpstep=4 / ip_ratio=1.40 / aq=1:0.70
Language : German
Default : Yes
Forced : No
Color range : Limited
Matrix coefficients : BT.709

Audio
ID : 2
Format : AAC
Format/Info : Advanced Audio Codec
Format profile : LC
Codec ID : A_AAC-2
Duration : 1 h 44 min
Bit rate : 128 kb/s
Channel(s) : 2 channels
Channel positions : Front: L R
Sampling rate : 48.0 kHz
Frame rate : 46.875 FPS (1024 SPF)
Compression mode : Lossy
Delay relative to video : 9 ms
Stream size : 96.0 MiB (14%)
Title : FR-AAC 2.0
Language : French
Default : Yes
Forced : No

Text
ID : 3
Format : UTF-8
Codec ID : S_TEXT/UTF8
Codec ID/Info : UTF-8 Plain Text
Duration : 1 h 32 min
Bit rate : 1 b/s
Count of elements : 32
Stream size : 932 Bytes (0%)
Title : FR Forced
Language : French
Default : Yes
Forced : No

Menu
00:00:00.000 : en:00:00:00.000
00:10:47.125 : en:00:10:47.125
00:21:27.792 : en:00:21:27.792
00:33:04.042 : en:00:33:04.042
00:43:05.208 : en:00:43:05.208
00:55:18.375 : en:00:55:18.375
01:07:43.833 : en:01:07:43.833
01:20:16.042 : en:01:20:16.042
01:35:33.875 : en:01:35:33.875





Neo Rauch - Comrades and Companions (2016)


Neo Rauch - Comrades and Companions (2016)


Neo Rauch - Comrades and Companions (2016)


Neo Rauch - Comrades and Companions (2016)