Never Ending Orgasm (2017)

Posted By: JohnSmith
1080p (FullHD) / WEB-DL
Never Ending Orgasm (2017)

Never Ending Orgasm (2017)
WEB-DL 1080p | MKV / AVC@5493 kb/s | 1920x1080 | 46mn | 1.82 GB
English: AAC, 64 kb/s (2 ch) | Subtitles: English
Genre: Documentary

The female orgasm has fascinated scientists for decades and has been the subject of numerous studies and reports – and documentaries. But until now, nobody has undertaken a comprehensive look at super-orgasmic women – women who can experience over a hundred orgasms in any one sexual encounter. A new study by Canada’s prestigious McGill University, for the first time reveals statistics and testimonies from over 450 super-orgasmic women. Some of them can experience 10 orgasms - while others come hundreds of times, experiencing hours of pleasure. They vary in age and background, but have one thing in common: they are all still a mystery to scientists, as what actually happens to them has never been studied. But that’s all about to change. A group of super-orgasmic women who took part in the Canadian study are taking it to the next stage. They will now go into the laboratory and meet the best sex scientists in the world. The aim is to reveal if the orgasms are all in their heads or can we prove and somehow measure that this endless chain of pleasure is really happening? By deploying fMRI (functional magnetic resonance imaging) scans, scientists will be monitoring changes in blood flow to the brain, looking at which parts are most active and shedding light on what these women feel during orgasm. Past fMRI studies about single orgasms have seen scientists disagree – but what will this new research reveal and will we be any closer to understanding why some women are super-orgasmic?


General
Unique ID : 192147216560993129289184266856007045445 (0x908E353312718F77BF86329CD7B19145)
Complete name : D:\Downloads\Never.Ending.Orgasm.2017.1080p.HULU.WEB-DL.AAC2.0.H.264-monkee.mkv
Format : Matroska
Format version : Version 4 / Version 2
File size : 1.82 GiB
Duration : 46 min 45 s
Overall bit rate : 5 559 kb/s
Encoded date : UTC 2017-11-25 00:31:55
Writing application : mkvmerge v9.5.0 ('Quiet Fire') 32bit
Writing library : libebml v1.3.4 + libmatroska v1.4.5

Video
ID : 1
Format : AVC
Format/Info : Advanced Video Codec
Format profile : High@L4
Format settings, CABAC : Yes
Format settings, ReFrames : 4 frames
Codec ID : V_MPEG4/ISO/AVC
Duration : 46 min 45 s
Bit rate : 5 493 kb/s
Width : 1 920 pixels
Height : 1 080 pixels
Display aspect ratio : 16:9
Frame rate mode : Constant
Frame rate : 25.000 FPS
Color space : YUV
Chroma subsampling : 4:2:0
Bit depth : 8 bits
Scan type : Progressive
Bits/(Pixel*Frame) : 0.106
Stream size : 1.79 GiB (99%)
Default : Yes
Forced : No

Audio
ID : 2
Format : AAC
Format/Info : Advanced Audio Codec
Format profile : HE-AAC / LC
Codec ID : A_AAC
Duration : 46 min 45 s
Bit rate : 64.0 kb/s
Channel(s) : 2 channels
Channel positions : Front: L R
Sampling rate : 48.0 kHz / 24.0 kHz
Frame rate : 23.438 FPS (1024 spf)
Compression mode : Lossy
Stream size : 21.4 MiB (1%)
Default : Yes
Forced : No

Text
ID : 3
Format : UTF-8
Codec ID : S_TEXT/UTF8
Codec ID/Info : UTF-8 Plain Text
Duration : 45 min 58 s
Bit rate : 112 b/s
Count of elements : 853
Stream size : 37.8 KiB (0%)
Language : English
Default : No
Forced : No

Menu
00:00:00.000 : en:Chapter 1
00:14:21.880 : en:Chapter 2
00:23:30.800 : en:Chapter 3
00:34:01.920 : en:Chapter 4




Screenshots

Never Ending Orgasm (2017)

Never Ending Orgasm (2017)

Never Ending Orgasm (2017)