No Man's Zone: Fukushima - The Day After (2012)

Posted By: Tutorial
No Man's Zone: Fukushima - The Day After (2012)

No Man's Zone: Fukushima - The Day After (2012)
DVDRip | 1024x576 | .MKV/AVC @ 1788 Kbps | 1h 40mn | 1.56 GiB
Audio: Japanese AC3 384 kbps, 6 channels | Subs: English, French, German
Genre: Documentary, Nature

A man wanders through the 20-kilometre exclusion zone around the stricken nuclear reactors at Fukushima. The cherry trees are in bloom and the natural surroundings make an idyllic impression. Radiation is invisible, yet a gaping emptiness looms where the tsunami engulfed streets and houses. The man is wearing normal clothing, just like the people still toughing it out here, for the time being at least. He occasionally encounters white "ghosts" in protective clothing, performing strange tasks. The zone in Fujiwara Toshi's NO MAN'S ZONE is both a place and a mental state. A gradual disintegration began long before the destruction and devastation, a process defied for the most part by the old people our "Stalker" encounters. A voice accompanies the filmmaker's wanderings, that of Armenian-Canadian actress Arsinée Khanjian, a voice from a place of exile, unfamiliar and sympathetic. NO MAN'S ZONE is a complex reflection on the relationship between images and fears, on being addicted to the apocalypse, on the ravaged relationship between man and nature. For the zone to be decontaminated and returned to the people, nature itself will have to undergo an amputation. Produced by Aliocha Films Tokyo and Denis Friedman Productions Paris.

also You can look my other last: Fukushima-posts

General
Unique ID : 248845263668738029219613012850716034924 (0xBB35DABF52AA67E5976C3E2C4659C76C)
Complete name : No.Mans.Zone.Fukushima.The.Day.After.mkv
Format : Matroska
Format version : Version 4 / Version 2
File size : 1.56 GiB
Duration : 1h 40mn
Overall bit rate : 2 216 Kbps
Encoded date : UTC 2013-07-23 04:20:53
Writing application : mkvmerge v6.3.0 ('You can't stop me!') built on Jun 28 2013 20:09:41
Writing library : libebml v1.3.0 + libmatroska v1.4.0

Video
ID : 1
Format : AVC
Format/Info : Advanced Video Codec
Format profile : High@L3.1
Format settings, CABAC : Yes
Format settings, ReFrames : 5 frames
Codec ID : V_MPEG4/ISO/AVC
Duration : 1h 40mn
Bit rate : 1 788 Kbps
Width : 1 024 pixels
Height : 576 pixels
Display aspect ratio : 16:9
Frame rate : 25.000 fps
Color space : YUV
Chroma subsampling : 4:2:0
Bit depth : 8 bits
Scan type : Progressive
Bits/(Pixel*Frame) : 0.121
Stream size : 1.26 GiB (81%)
Title : 無人地帯 No Man's Zone: Fukushima - The Day After (2012) DVDRip MVGroup.org SeeingMole [QTGMC(InputType=1)]
Writing library : x264 core 135 r2345 f0c1c53
Encoding settings : cabac=1 / ref=5 / deblock=1:0:0 / analyse=0x3:0x133 / me=umh / subme=9 / psy=1 / psy_rd=1.00:0.00 / mixed_ref=1 / me_range=24 / chroma_me=1 / trellis=1 / 8x8dct=1 / cqm=0 / deadzone=21,11 / fast_pskip=1 / chroma_qp_offset=-2 / threads=12 / lookahead_threads=1 / sliced_threads=0 / nr=0 / decimate=1 / interlaced=0 / bluray_compat=0 / constrained_intra=0 / bframes=5 / b_pyramid=2 / b_adapt=2 / b_bias=0 / direct=1 / weightb=1 / open_gop=0 / weightp=2 / keyint=250 / keyint_min=25 / scenecut=40 / intra_refresh=0 / rc_lookahead=40 / rc=crf / mbtree=1 / crf=20.0 / qcomp=0.60 / qpmin=0 / qpmax=69 / qpstep=4 / ip_ratio=1.40 / aq=1:1.00 / zones=1,1054,q=41/148297,151274,q=41
Default : Yes
Forced : No
Color primaries : BT.470-6 System B, BT.470-6 System G, BT.601-6 625, BT.1358 625, BT.1700 625 PAL, BT.1700 625 SECAM
Transfer characteristics : BT.470-6 System B, BT.470-6 System G
Matrix coefficients : BT.470-6 System B, BT.470-6 System G, BT.601-6 625, BT.1358 625, BT.1700 625 PAL, BT.1700 625 SECAM, IEC 61966-2-4 601

Audio
ID : 2
Format : AC-3
Format/Info : Audio Coding 3
Mode extension : CM (complete main)
Codec ID : A_AC3
Duration : 1h 40mn
Bit rate mode : Constant
Bit rate : 384 Kbps
Channel(s) : 6 channels
Channel positions : Front: L C R, Side: L R, LFE
Sampling rate : 48.0 KHz
Bit depth : 16 bits
Compression mode : Lossy
Stream size : 277 MiB (17%)
Language : Japanese
Default : Yes
Forced : No

Text #1
ID : 3
Format : UTF-8
Codec ID : S_TEXT/UTF8
Codec ID/Info : UTF-8 Plain Text
Language : English
Default : Yes
Forced : No

Text #2
ID : 4
Format : UTF-8
Codec ID : S_TEXT/UTF8

Codec ID/Info : UTF-8 Plain Text
Language : French
Default : No
Forced : No

Text #3
ID : 5
Format : UTF-8
Codec ID : S_TEXT/UTF8
Codec ID/Info : UTF-8 Plain Text
Language : German
Default : No
Forced : No

Menu
00:00:00.000 : en:Chapter 1
00:04:44.760 : en:Chapter 2
00:17:11.400 : en:Chapter 3
00:25:24.520 : en:Chapter 4
00:39:06.920 : en:Chapter 5
00:45:25.160 : en:Chapter 6
00:56:10.240 : en:Chapter 7
01:08:17.640 : en:Chapter 8
01:14:16.600 : en:Chapter 9
01:25:42.640 : en:Chapter 10
01:27:17.920 : en:Chapter 11
01:32:19.200 : en:Chapter 12
Screenshots

No Man's Zone: Fukushima - The Day After (2012)

No Man's Zone: Fukushima - The Day After (2012)

No Man's Zone: Fukushima - The Day After (2012)

No Man's Zone: Fukushima - The Day After (2012)

Welcome to my blog - daily update!

No Man's Zone: Fukushima - The Day After (2012)