No Way Out (1987)

Posted By: Tavaz
1080p (FullHD) / BDRip IMDb
No Way Out (1987)

No Way Out (1987)
BDRip | MKV | 1920x1040 | English | H265 @ 3306 kbps | AC-3 @ 448 kbps | 1 h 54 min | 3.01 GiB
Subtitles: English
Genre: Action, Drama, Thriller

Navy Lt. Tom Farrell meets a young woman, Susan Atwell , and they share a passionate fling. Farrell then finds out that his superior, Defense Secretary David Brice, is also romantically involved with Atwell. When the young woman turns up dead, Farrell is put in charge of the murder investigation. He begins to uncover shocking clues about the case, but when details of his encounter with Susan surface, he becomes a suspect as well.

2b1af8445ad34152bc9357da57b78bb7.mkv (3.0 GB)



General
Unique ID : 244379235251361672534019952401322181214 (0xB7D9BA8BCD3DCD68A424A4A840D1825E)
Complete name : ./2b1af8445ad34152bc9357da57b78bb7.mkv
Format : Matroska
Format version : Version 2
File size : 3.01 GiB
Duration : 1 h 54 min
Overall bit rate : 3 763 kb/s
Movie name : No Way Out 1987 BluRay 10Bit 1080p DD5.1 H265-d3g
Encoded date : UTC 2018-03-24 17:47:02
Writing application : DVDFab 10.0.8.7
Writing library : libebml v1.3.4 + libmatroska v1.4.5

Video
ID : 1
Format : HEVC
Format/Info : High Efficiency Video Coding
Format profile : Main 10@L4@Main
Codec ID : V_MPEGH/ISO/HEVC
Duration : 1 h 54 min
Bit rate : 3 306 kb/s
Width : 1 920 pixels
Height : 1 040 pixels
Display aspect ratio : 1.85:1
Frame rate mode : Constant
Frame rate : 23.976 (24000/1001) FPS
Color space : YUV
Chroma subsampling : 4:2:0
Bit depth : 10 bits
Bits/(Pixel*Frame) : 0.069
Stream size : 2.64 GiB (88%)
Default : Yes
Forced : No
Color range : Limited
Color primaries : BT.709
Transfer characteristics : BT.709
Matrix coefficients : BT.709

Audio
ID : 2
Format : AC-3
Format/Info : Audio Coding 3
Format settings, Endianness : Big
Codec ID : A_AC3
Duration : 1 h 54 min
Bit rate mode : Constant
Bit rate : 448 kb/s
Channel(s) : 6 channels
Channel positions : Front: L C R, Side: L R, LFE
Sampling rate : 48.0 kHz
Frame rate : 31.250 FPS (1536 SPF)
Bit depth : 16 bits
Compression mode : Lossy
Stream size : 367 MiB (12%)
Language : English
Service kind : Complete Main
Default : Yes
Forced : No

Text
ID : 3
Format : VobSub
Codec ID : S_VOBSUB
Codec ID/Info : Picture based subtitle format used on DVDs
Duration : 1 h 46 min
Bit rate : 7 764 b/s
Count of elements : 1076
Stream size : 5.91 MiB (0%)
Language : English
Default : No
Forced : No

Menu
00:00:00.000 : en:(01)00:00:00:000
00:14:52.474 : en:(02)00:14:52:474
00:31:48.823 : en:(03)00:31:48:823
00:44:30.584 : en:(04)00:44:30:584
01:00:42.055 : en:(05)01:00:42:055
01:18:52.060 : en:(06)01:18:52:060
01:33:19.176 : en:(07)01:33:19:176
01:39:47.022 : en:(08)01:39:47:022
01:50:10.228 : en:(09)01:50:10:228





No Way Out (1987)


No Way Out (1987)


No Way Out (1987)


No Way Out (1987)


No Way Out (1987)