Subcategories

ORF - River Without Frontiers (2008)

Posted By: notbanned
ORF - River Without Frontiers (2008)

ORF - River Without Frontiers (2008)
HDTV | 1280x720 | .MKV/AVC @ 4000 Kbps | 51mn 56s | Audio: English AC3 192 kbps, 2 channels | Subs: None | 1.51 GiB
Genre: Documentary

The Morava river with its forests is one of the most beautiful and ecologically valuable riverscapes featuring the richest biodiversity in all of Central Europe. Like a green ribbon, the riverine forests of the Morava - together with those of the Danube and the Dyje - link the Alps with the Carpathians, forming a bridge between Eastern and Central Europe. The infl uence of the Pannonian climate with its hot and dry summers combines with the slowly receding high waters to form a mosaic of extremely different habitats: moist meadows lie close to sand dunes, riverine forests alternate with dry primeval oak forests. This enormous diversity of habitats creates a refuge for animal and plant species, a specifi c composition that cannot be found in any other place.


General
Unique ID : 189769349050854003426554487124518190191 (0x8EC43F479B7ABC4CA4A6EC2FE7B73C6F)
Complete name : ORF.River.Without.Frontiers.mkv
Format : Matroska
Format version : Version 4 / Version 2
File size : 1.51 GiB
Duration : 51mn 56s
Overall bit rate : 4 148 Kbps

Video
ID : 1
Format : AVC
Format/Info : Advanced Video Codec
Format profile : High@L4.1
Format settings, CABAC : Yes
Format settings, ReFrames : 8 frames
Codec ID : V_MPEG4/ISO/AVC
Duration : 51mn 56s
Bit rate : 4 000 Kbps
Width : 1 280 pixels
Height : 720 pixels
Display aspect ratio : 16:9
Frame rate : 29.970 fps
Color space : YUV
Chroma subsampling : 4:2:0
Bit depth : 8 bits
Scan type : Progressive
Bits/(Pixel*Frame) : 0.145
Stream size : 1.41 GiB (93%)
Writing library : x264 core 138 r2358 9e941d1
Encoding settings : cabac=1 / ref=8 / deblock=1:-1:-1 / analyse=0x3:0x113 / me=umh / subme=7 / psy=1 / psy_rd=1.00:0.00 / mixed_ref=0 / me_range=30 / chroma_me=1 / trellis=2 / 8x8dct=1 / cqm=0 / deadzone=21,11 / fast_pskip=0 / chroma_qp_offset=-2 / threads=6 / lookahead_threads=1 / sliced_threads=0 / nr=0 / decimate=1 / interlaced=0 / bluray_compat=0 / constrained_intra=0 / bframes=5 / b_pyramid=0 / b_adapt=2 / b_bias=0 / direct=1 / weightb=1 / open_gop=0 / weightp=2 / keyint=300 / keyint_min=29 / scenecut=40 / intra_refresh=0 / rc_lookahead=40 / rc=abr / mbtree=1 / bitrate=4000 / ratetol=15.0 / qcomp=0.60 / qpmin=10 / qpmax=51 / qpstep=4 / ip_ratio=1.40 / aq=1:1.05
Language : English
Default : Yes
Forced : No

Audio
ID : 2
Format : AC-3
Format/Info : Audio Coding 3
Mode extension : CM (complete main)
Format settings, Endianness : Big
Codec ID : A_AC3
Duration : 51mn 56s
Bit rate mode : Constant
Bit rate : 192 Kbps
Channel(s) : 2 channels
Channel positions : Front: L R
Sampling rate : 48.0 KHz
Bit depth : 16 bits
Compression mode : Lossy
Delay relative to video : 28ms
Stream size : 71.3 MiB (5%)
Default : Yes
Forced : No


Screenshots:

ORF - River Without Frontiers (2008)

ORF - River Without Frontiers (2008)

ORF - River Without Frontiers (2008)

ORF - River Without Frontiers (2008)