Tags
Language
Tags

Outback Wrangler 2018 Monster Croc Wrangler Croc At the Door

Posted By: Tavaz
SD / HDTV
Outback Wrangler 2018 Monster Croc Wrangler Croc At the Door

Outback Wrangler 2018 Monster Croc Wrangler Croc At the Door
HDTV | MOV | 1024x576 | English | H264 @ 1299 kbps | AAC @ 125 kbps | 22 min 16 s | 228 MiB
Genre: Documentary

Monster Croc Wrangler Croc At the Door
Matt receives a call from a couple, Simon and Lauren, who own a ranch alongside a major croc-infested river.

Outback.Wrangler.2018.Monster.Croc.Wrangler.Croc.At.the.Door.HDTV.x264-JIVE.mp4 (228.3 MB)



General
Complete name : ./Outback.Wrangler.2018.Monster.Croc.Wrangler.Croc.At.the.Door.HDTV.x264-JIVE.mp4
Format : MPEG-4
Format profile : Base Media
Codec ID : isom (isom/iso2/avc1/mp41)
File size : 228 MiB
Duration : 22 min 16 s
Overall bit rate mode : Variable
Overall bit rate : 1 433 kb/s
Movie name : Ow 2018
Law rating : TV-MA
Writing application : Lavf57.71.100
Comment : {name}

Video
ID : 1
Format : AVC
Format/Info : Advanced Video Codec
Format profile : Main@L3.1
Format settings : CABAC / 3 Ref Frames
Format settings, CABAC : Yes
Format settings, RefFrames : 3 frames
Codec ID : avc1
Codec ID/Info : Advanced Video Coding
Duration : 22 min 16 s
Bit rate mode : Constant
Bit rate : 1 300 kb/s
Width : 1 024 pixels
Height : 576 pixels
Display aspect ratio : 16:9
Frame rate mode : Constant
Frame rate : 29.970 (30000/1001) FPS
Color space : YUV
Chroma subsampling : 4:2:0
Bit depth : 8 bits
Scan type : Progressive
Bits/(Pixel*Frame) : 0.074
Stream size : 207 MiB (91%)

Audio
ID : 2
Format : AAC
Format/Info : Advanced Audio Codec
Format profile : LC
Codec ID : mp4a-40-2
Duration : 22 min 16 s
Bit rate mode : Variable
Bit rate : 126 kb/s
Maximum bit rate : 130 kb/s
Channel(s) : 2 channels
Channel positions : Front: L R
Sampling rate : 44.1 kHz
Frame rate : 43.066 FPS (1024 SPF)
Compression mode : Lossy
Stream size : 20.0 MiB (9%)
Language : English
Default : Yes
Alternate group : 1

Text #1
ID : 1-CC1
Format : EIA-608
Muxing mode : SCTE 128 / DTVCC Transport
Muxing mode, more info : Muxed in Video #1
Duration : 22 min 16 s
Bit rate mode : Constant
Stream size : 0.00 Byte (0%)
Encoded stream size : 0.00 Byte (0%)
CaptionServiceName : CC1

Text #2
ID : 1-1
Format : EIA-708
Muxing mode : SCTE 128 / DTVCC Transport
Muxing mode, more info : Muxed in Video #1
Duration : 22 min 16 s
Bit rate mode : Constant
Stream size : 0.00 Byte (0%)
Encoded stream size : 0.00 Byte (0%)





Outback Wrangler 2018 Monster Croc Wrangler Croc At the Door


Outback Wrangler 2018 Monster Croc Wrangler Croc At the Door


Outback Wrangler 2018 Monster Croc Wrangler Croc At the Door


Outback Wrangler 2018 Monster Croc Wrangler Croc At the Door