Subcategories

PBS - DNA (2005)

Posted By: Tutorial
PBS - DNA (2005)

PBS - DNA (2005)
DVDRip | 640 x 384 | .AVI/XviD @ 1647 Kbps | 5x~53mn | English AC-3 192 Kbps, 2 channels | 3.41 GB
Genre: Documentary, Health-Medical

A half-century ago, two unknown scientists heralded the dawning of a new era in biology and human life as they entered an English pub! Of course, Jim Watson and Francis Crick were hardly exaggerating. Their achievements almost single-handedly launched the new science of DNA. Interviews with renowned scientists and stunningly realized animations and reconstructions of key experiments offer an unprecedented glimpse of the molecular basis of life.
Part 1: The Secret of Life
Fifty years after the discovery of the double helix, this film re-assesses the classic story of how Jim Watson and Francis Crick worked out the double helix structure of DNA. This is the definitive documentary account of how the human race found the secret of life. It reveals how a gawky American biologist, with a strong interest in birds came to team up with a cocky, but brilliant physicist in Cambridge, England. Against all the odds, they decided to tackle the problem of the century: was DNA the key to life?

Part 2: Playing God
In 1973, two scientists, Herb Boyer and Stan Cohen, became the first genetic engineers when they transferred the DNA from one species to another. Their experiment triggered a wave of controversy about the dangers of genetic manipulation, but it also generated a multi-billion dollar industry. Was altering the genetic makeup of plants and animals a threat to humanity or the key to alleviating a host of health problems? Biologists, along with lawyers and journalists from all over the world, were called to a meeting in California to decide the future of DNA research.

Part 3: The Human Race
The race to discover the structure of DNA was eclipsed by another race - to catalogue three billion letters of code that make up human DNA. The practical applications and profit potential of mapping the human genome, a virtual instruction manual of the human being, were extensive, from DNA fingerprinting to fighting cancer. In an exclusive interview for this film, President Bill Clinton discusses his involvement in the historic race, which ultimately became a battle.

Part 4: Curing Cancer
In 1994, Bud Romine was diagnosed with an incurable type of cancer, chronic myeloid leukemia (CML). He was given three years to live. In 1996, a newspaper article caught his eye. It described how a local doctor and researcher, Brian Druker, was looking to test a new kind of cancer drug that targets the damaged gene responsible for CML.In 1997, months away from death, Romine became the first patient ever to take a drug called Gleevec.Within 17 days his leukemia had completely disappeared.

Part 5: Pandoras Box

In the final programme, James Watson gives a tour of the future of DNA science. He believes it should be used to change the human race. His views are both extraordinary and extremely controversial. Watson argues for a new kind of eugenics - where parents are allowed to choose the DNA of their children - to make them healthier, more intelligent, even better looking. This film is his journey through the subject, from a gas chamber in Germany where the mentally ill were murdered by the Nazis to labs today where scientists have found ways to create new strands of DNA. In the program, Dr. Kay Jamison, a renowned neuroscientist who is manic depressive, and the parents of a child with Down's Syndrome make a case for the value of differences among people in society.

General
Complete name : DNA.1of5.The.Secret.of.Life.avi
Format : AVI
Format/Info : Audio Video Interleave
File size : 700 MiB
Duration : 53mn 0s
Overall bit rate : 1 847 Kbps
Writing application : VirtualDubMod 1.5.4.1 (build 2178/release)
Writing library : VirtualDubMod build 2178/release

Video
ID : 0
Format : MPEG-4 Visual
Format profile : Advanced Simple@L5
Format settings, BVOP : 1
Format settings, QPel : No
Format settings, GMC : No warppoints
Format settings, Matrix : Custom
Codec ID : XVID
Codec ID/Hint : XviD
Duration : 53mn 0s
Bit rate : 1 647 Kbps
Width : 640 pixels
Height : 384 pixels
Display aspect ratio : 1.667
Frame rate : 29.970 fps
Color space : YUV
Chroma subsampling : 4:2:0
Bit depth : 8 bits
Scan type : Progressive
Compression mode : Lossy
Bits/(Pixel*Frame) : 0.224
Stream size : 624 MiB (89%)
Writing library : XviD 1.1.0 (UTC 2005-11-22)

Audio
ID : 1
Format : AC-3
Format/Info : Audio Coding 3
Mode extension : CM (complete main)
Codec ID : 2000
Duration : 53mn 0s
Bit rate mode : Constant
Bit rate : 192 Kbps
Channel(s) : 2 channels
Channel positions : Front: L R
Sampling rate : 48.0 KHz
Bit depth : 16 bits
Compression mode : Lossy
Delay relative to video : 22ms
Stream size : 72.8 MiB (10%)
Alignment : Split accross interleaves
Interleave, duration : 96 ms (2.88 video frames)
Interleave, preload duration : 96 ms
Language : English
Screenshots

PBS - DNA (2005)

PBS - DNA (2005)

PBS - DNA (2005)

PBS - DNA (2005)

Welcome to my blog - daily update!

PBS - DNA (2005)