Subcategories

BBC - Panorama: A Prescription for Murder? (2017)

Posted By: notbanned
BBC - Panorama: A Prescription for Murder? (2017)

BBC - Panorama: A Prescription for Murder? (2017)
WEBRip | 1280x720 | .MKV/AVC @ 2304 Kbps | 58 min 17 s | 1.07 GiB
Audio: English AAC 317 kbps, 2 channels | Subs: None
Genre: Documentary

Shelley Jofre reports on rare but possibly devastating side effects of SSRI antidepressants that can lead to psychosis, violence and even murder.


General
Unique ID : 189860758983335342092983004150763887646 (0x8ED5DA232922148599A970CEBBB41C1E)
Complete name : Panorama.A.Prescription.for.Murder.720p.mkv
Format : Matroska
Format version : Version 4 / Version 2
File size : 1.07 GiB
Duration : 58 min 17 s
Overall bit rate mode : Variable
Overall bit rate : 2 623 kb/s

Video
ID : 1
Format : AVC
Format/Info : Advanced Video Codec
Format profile : High@L4.1
Format settings, CABAC : Yes
Format settings, ReFrames : 2 frames
Codec ID : V_MPEG4/ISO/AVC
Duration : 58 min 16 s
Bit rate mode : Variable
Bit rate : 2 304 kb/s
Maximum bit rate : 3 500 kb/s
Width : 1 280 pixels
Height : 720 pixels
Display aspect ratio : 16:9
Frame rate mode : Constant
Frame rate : 25.000 FPS
Color space : YUV
Chroma subsampling : 4:2:0
Bit depth : 8 bits
Scan type : Progressive
Bits/(Pixel*Frame) : 0.100
Stream size : 960 MiB (88%)
Default : Yes
Forced : No

Audio
ID : 3
Format : AAC
Format/Info : Advanced Audio Codec
Format profile : LC
Codec ID : A_AAC
Duration : 58 min 16 s
Bit rate : 317 kb/s
Channel(s) : 2 channels
Channel positions : Front: L R
Sampling rate : 48.0 kHz
Frame rate : 46.875 FPS (1024 spf)
Compression mode : Lossy
Stream size : 132 MiB (12%)
Language : English
Default : Yes
Forced : No

Text
ID : 2
Format : UTF-8
Codec ID : S_TEXT/UTF8
Codec ID/Info : UTF-8 Plain Text
Duration : 57 min 33 s
Bit rate : 107 b/s
Count of elements : 543
Stream size : 45.2 KiB (0%)
Title : English
Default : Yes
Forced : No


Screenshots:

BBC - Panorama: A Prescription for Murder? (2017)

BBC - Panorama: A Prescription for Murder? (2017)

BBC - Panorama: A Prescription for Murder? (2017)

BBC - Panorama: A Prescription for Murder? (2017)