BBC - Panorama: Who Wants to Be a Bitcoin Millionaire? (2018)

Posted By: notbanned
720p (HD) / HDTV
BBC - Panorama: Who Wants to Be a Bitcoin Millionaire? (2018)

BBC - Panorama: Who Wants to Be a Bitcoin Millionaire? (2018)
HDTV | 1280x720 | .MKV/AVC @ 1876 Kbps | 28 min 54 s | 436 MiB
Audio: English AC3 192 kbps, 2 channels | Subs: None
Genre: Documentary

Bitcoin is the world's leading virtual currency, but unlike real money, it is not backed by a government or properly regulated. Bitcoin is exchanged and held digitally by users - which is attractive to criminals selling drugs, pornography and arms. But now Bitcoin is moving into the mainstream and being openly marketed as an investment opportunity. Panorama investigates what Bitcoin is and what it means, going inside a Bitcoin mine in Iceland - where currency is made - and spending time with the Bitcoin millionaires of Silicon Valley. The programme also hears from others who have been scammed out of their life savings and investors who think the cryptocurrency is an enormous scam and that the writing is on the wall. In Britain, and around the world, authorities are sounding the alarm that Bitcoin is too risky - is it too late, or too crazy, to try to become a Bitcoin millionaire?

General
Unique ID : 0 (0x0)
Complete name : Panorama.Who.Wants.To.Be.A.Bitcoin.Millionaire.720p.mkv
Format : Matroska
Format version : Version 4 / Version 2
File size : 436 MiB
Duration : 28 min 54 s
Overall bit rate : 2 110 kb/s

Video
ID : 1
Format : AVC
Format/Info : Advanced Video Codec
Format profile : High@L4.1
Format settings, CABAC : Yes
Format settings, ReFrames : 5 frames
Codec ID : V_MPEG4/ISO/AVC
Duration : 28 min 54 s
Bit rate : 1 876 kb/s
Width : 1 280 pixels
Height : 720 pixels
Display aspect ratio : 16:9
Frame rate mode : Constant
Frame rate : 25.000 FPS
Color space : YUV
Chroma subsampling : 4:2:0
Bit depth : 8 bits
Scan type : Progressive
Bits/(Pixel*Frame) : 0.081
Stream size : 388 MiB (89%)
Writing library : x264 core 155 r2901 7d0ff22
Encoding settings : cabac=1 / ref=5 / deblock=1:0:0 / analyse=0x3:0x113 / me=hex / subme=8 / psy=1 / psy_rd=1.00:0.00 / mixed_ref=1 / me_range=16 / chroma_me=1 / trellis=2 / 8x8dct=1 / cqm=0 / deadzone=21,11 / fast_pskip=1 / chroma_qp_offset=-2 / threads=12 / lookahead_threads=2 / sliced_threads=0 / nr=0 / decimate=1 / interlaced=0 / bluray_compat=0 / constrained_intra=0 / bframes=3 / b_pyramid=2 / b_adapt=1 / b_bias=0 / direct=3 / weightb=1 / open_gop=0 / weightp=2 / keyint=250 / keyint_min=25 / scenecut=40 / intra_refresh=0 / rc_lookahead=50 / rc=crf / mbtree=1 / crf=20.0 / qcomp=0.60 / qpmin=0 / qpmax=69 / qpstep=4 / ip_ratio=1.40 / aq=1:1.00
Language : English
Default : Yes
Forced : No
Color range : Limited
Matrix coefficients : BT.709

Audio
ID : 2
Format : AC-3
Format/Info : Audio Coding 3
Format settings, Endianness : Big
Codec ID : A_AC3
Duration : 28 min 54 s
Bit rate mode : Constant
Bit rate : 192 kb/s
Channel(s) : 2 channels
Channel positions : Front: L R
Sampling rate : 48.0 kHz
Frame rate : 31.250 FPS (1536 spf)
Bit depth : 16 bits
Compression mode : Lossy
Stream size : 39.7 MiB (9%)
Language : English
Service kind : Complete Main
Default : Yes
Forced : No


Screenshots:

BBC - Panorama: Who Wants to Be a Bitcoin Millionaire? (2018)

BBC - Panorama: Who Wants to Be a Bitcoin Millionaire? (2018)

BBC - Panorama: Who Wants to Be a Bitcoin Millionaire? (2018)

BBC - Panorama: Who Wants to Be a Bitcoin Millionaire? (2018)