L'étrange pouvoir de Norman 3D (2012)

Posted By: Tavaz
L'étrange pouvoir de Norman 3D (2012)

L'étrange pouvoir de Norman 3D (2012)
BDRip | MKV | 1280x528 | French | H264 @ 2621 kbps | DTS @ 768 kbps | 1 h 32 min | 2.18 GiB
Subtitles: French
Genre: Animation, Adventure, Comedy, Family, Fantasy

Une petite ville est prise d'assaut par une armée de zombies. Qui peut-on appeler à la rescousse ? Le seul garçon du coin capable de parler avec les morts : Norman. Pour sauver ses congénères d'une malédiction vieille de plusieurs siècles, Norman va devoir combattre zombies, fantômes, sorcières et, les plus effrayants de tous, une tribu d'adultes demeurés. Mais ce garçon marginal aux penchants morbides va voir ses pouvoirs paranormaux poussés dans leurs derniers retranchements.



paranorman.2012.3d.french.720p.bluray.x264-zest-sample.mkv (51.6 MB)
paranorman.2012.3d.french.720p.bluray.x264-zest.mkv (2.2 GB)



General
Unique ID : 234159567907865945787040036564179854518 (0xB0297E0B4B9CD583958507222003A4B6)
Complete name : ./paranorman.2012.3d.french.720p.bluray.x264-zest.mkv
Format : Matroska
Format version : Version 4 / Version 2
File size : 2.18 GiB
Duration : 1 h 32 min
Overall bit rate : 3 391 kb/s
Encoded date : UTC 2017-07-18 07:59:44
Writing application : mkvmerge v8.3.0 ('Over the Horizon') 64bit
Writing library : libebml v1.3.1 + libmatroska v1.4.2

Video
ID : 1
Format : AVC
Format/Info : Advanced Video Codec
Format profile : High@L4.1
Format settings : CABAC / 5 Ref Frames
Format settings, CABAC : Yes
Format settings, RefFrames : 5 frames
Codec ID : V_MPEG4/ISO/AVC
Duration : 1 h 32 min
Bit rate : 2 621 kb/s
Width : 1 280 pixels
Height : 528 pixels
Display aspect ratio : 2.40:1
Frame rate mode : Constant
Frame rate : 23.976 (24000/1001) FPS
Color space : YUV
Chroma subsampling : 4:2:0
Bit depth : 8 bits
Scan type : Progressive
Bits/(Pixel*Frame) : 0.162
Stream size : 1.69 GiB (77%)
Title : ParaNorman.2012.3D.FRENCH.720p.BluRay.x264-ZEST
Writing library : x264 core 152 r2851 ba24899
Encoding settings : cabac=1 / ref=5 / deblock=1:0:0 / analyse=0x3:0x133 / me=umh / subme=8 / psy=1 / psy_rd=1.00:0.00 / mixed_ref=1 / me_range=16 / chroma_me=1 / trellis=2 / 8x8dct=1 / cqm=0 / deadzone=21,11 / fast_pskip=0 / chroma_qp_offset=-2 / threads=16 / lookahead_threads=2 / sliced_threads=0 / nr=0 / decimate=1 / interlaced=0 / bluray_compat=0 / constrained_intra=0 / bframes=3 / b_pyramid=2 / b_adapt=2 / b_bias=0 / direct=3 / weightb=1 / open_gop=0 / weightp=2 / keyint=240 / keyint_min=23 / scenecut=40 / intra_refresh=0 / rc_lookahead=50 / rc=2pass / mbtree=1 / bitrate=2621 / ratetol=1.0 / qcomp=0.60 / qpmin=0 / qpmax=69 / qpstep=4 / cplxblur=20.0 / qblur=0.5 / ip_ratio=1.40 / aq=1:1.00
Default : Yes
Forced : Yes

Audio
ID : 2
Format : DTS
Format/Info : Digital Theater Systems
Mode : 16
Format settings, Endianness : Big
Codec ID : A_DTS
Duration : 1 h 32 min
Bit rate mode : Constant
Bit rate : 768 kb/s
Channel(s) : 6 channels
Channel positions : Front: L C R, Side: L R, LFE
Sampling rate : 48.0 kHz
Frame rate : 93.750 FPS (512 SPF)
Bit depth : 24 bits
Compression mode : Lossy
Stream size : 506 MiB (23%)
Title : French
Language : French
Default : Yes
Forced : Yes

Text
ID : 3
Format : UTF-8
Codec ID : S_TEXT/UTF8
Codec ID/Info : UTF-8 Plain Text
Duration : 1 h 27 min
Bit rate : 0 b/s
Count of elements : 9
Stream size : 168 Bytes (0%)
Title : French Forced Subs
Language : French
Default : Yes
Forced : Yes

Menu
00:00:00.000 : en:1 - 0:00:00
00:04:55.420 : en:2 - 0:04:55
00:08:29.425 : en:3 - 0:08:29
00:11:38.864 : en:4 - 0:11:39
00:15:10.576 : en:5 - 0:15:11
00:18:10.672 : en:6 - 0:18:11
00:21:54.146 : en:7 - 0:21:54
00:26:25.500 : en:8 - 0:26:26
00:30:04.969 : en:9 - 0:30:05
00:33:56.117 : en:10 - 0:33:56
00:38:16.919 : en:11 - 0:38:17
00:43:06.542 : en:12 - 0:43:07
00:49:36.848 : en:13 - 0:49:37
00:52:46.788 : en:14 - 0:52:47
00:56:46.194 : en:15 - 0:56:46
01:01:15.963 : en:16 - 1:01:16
01:05:53.574 : en:17 - 1:05:54
01:11:51.056 : en:18 - 1:11:51
01:18:19.486 : en:19 - 1:18:19
01:25:07.393 : en:20 - 1:25:07
01:32:08.898 : en:21 - 1:32:09





L'étrange pouvoir de Norman 3D (2012)


L'étrange pouvoir de Norman 3D (2012)


L'étrange pouvoir de Norman 3D (2012)


L'étrange pouvoir de Norman 3D (2012)


L'étrange pouvoir de Norman 3D (2012)