Subcategories

Paradeisos (2011)

Posted By: Rare-1
Paradeisos (2011)

Paradeisos / Paradise (2011)
DVDRip | Lang: Greek | MKV | 720x384 | AVC, @ 1590 Kbps, 25.000 fps | 01:44:01 | Subs: English, (embedded in MKV) | 1.49 GB
Audio: AC3, 48000 Hz, 5:1, 448 Kbps
Genre: Romance | Greece

Marianna returns to Greece on a whim to surprise her boyfriend, secretly plotting to stay with him forever, while Nikos is using the carnival as an excuse to confess his love to his unsuspecting boss. Eugenia hesitates to tell her daughter about her secret romance with the much younger carnival crew leader, while Ilias has no qualms about begging his estranged wife to come home.

Four couples, each one desperately trying to either rescue or escape their relationship, lose themselves in the intoxicating atmosphere of the carnival before they finally reveal their true colors, hidden behind the masks.
In the midst of carnival madness, four duets are staking their claim on their own personal Paradise…

IMDB 4.5/10 from 51 users

Director: Panagiotis Fafoutis
Writer: N/A
Actors: Natasa Zaga, Mihalis Fotopoulos, Olia Lazaridou, Errikos Litsis
Rated: N/A
Runtime: 105 min

Paradeisos (2011)


More Screenshots:

Paradeisos (2011)


General
Unique ID : 117995641253372931849217881729643727029 (0x58C52245F0B852EEF323B9E598FA48B5)
Complete name : I:\Paradise [2011] DvDRip x264-AC3\Paradise DvDRip.x264.AC3.mkv
Format : Matroska
Format version : Version 2
File size : 1.49 GiB
Duration : 1h 44mn
Overall bit rate : 2 046 Kbps
Writing application : HandBrake 0.9.9
Writing library : libmkv 0.6.5

Video
ID : 1
Format : AVC
Format/Info : Advanced Video Codec
Format profile : High@L4.1
Format settings, CABAC : Yes
Format settings, ReFrames : 9 frames
Codec ID : V_MPEG4/ISO/AVC
Duration : 1h 44mn
Bit rate : 1 590 Kbps
Width : 720 pixels
Height : 384 pixels
Display aspect ratio : 1.85:1
Frame rate mode : Constant
Frame rate : 25.000 fps
Color space : YUV
Chroma subsampling : 4:2:0
Bit depth : 8 bits
Scan type : Progressive
Bits/(Pixel*Frame) : 0.230
Stream size : 1.13 GiB (76%)
Title : Paradise [2011] - DvDRip x264 AC3
Writing library : x264 core 130 r2273 b3065e6
Encoding settings : cabac=1 / ref=9 / deblock=1:0:0 / analyse=0x3:0x113 / me=umh / subme=9 / psy=1 / psy_rd=1.00:0.00 / mixed_ref=1 / me_range=16 / chroma_me=1 / trellis=2 / 8x8dct=1 / cqm=0 / deadzone=21,11 / fast_pskip=1 / chroma_qp_offset=-2 / threads=3 / lookahead_threads=1 / sliced_threads=0 / nr=0 / decimate=1 / interlaced=0 / bluray_compat=0 / constrained_intra=0 / bframes=10 / b_pyramid=2 / b_adapt=2 / b_bias=0 / direct=1 / weightb=1 / open_gop=0 / weightp=2 / keyint=250 / keyint_min=25 / scenecut=40 / intra_refresh=0 / rc_lookahead=40 / rc=2pass / mbtree=1 / bitrate=1590 / ratetol=1.0 / qcomp=0.60 / qpmin=0 / qpmax=69 / qpstep=4 / cplxblur=20.0 / qblur=0.5 / vbv_maxrate=62500 / vbv_bufsize=78125 / nal_hrd=none / ip_ratio=1.40 / aq=1:1.00
Language : Greek
Default : Yes
Forced : No
Color primaries : BT.601 PAL
Transfer characteristics : BT.709
Matrix coefficients : BT.601

Audio
ID : 2
Format : AC-3
Format/Info : Audio Coding 3
Mode extension : CM (complete main)
Format settings, Endianness : Big
Codec ID : A_AC3
Duration : 1h 44mn
Bit rate mode : Constant
Bit rate : 448 Kbps
Channel(s) : 6 channels
Channel positions : Front: L C R, Side: L R, LFE
Sampling rate : 48.0 KHz
Bit depth : 16 bits
Compression mode : Lossy
Stream size : 333 MiB (22%)
Language : Greek
Default : Yes
Forced : No

Text
ID : 3
Format : VobSub
Codec ID : S_VOBSUB
Codec ID/Info : The same subtitle format used on DVDs
Language : English
Default : No
Forced : No

Menu
00:00:00.000 : Chapter 1
00:07:46.560 : Chapter 2
00:15:26.400 : Chapter 3
00:24:13.920 : Chapter 4
00:33:59.520 : Chapter 5
00:42:20.640 : Chapter 6
00:52:20.160 : Chapter 7
01:04:11.520 : Chapter 8
01:18:21.120 : Chapter 9
01:29:27.840 : Chapter 10
01:40:39.360 : Chapter 11


Many Thanks to Original uploader.


For More Rare Movies Check out my blog!

Download Links :

No Mirrors Please