Tags
Language
Tags

Parasite / Gisaengchung (2019) [Criterion Collection]

Posted By: RSU75
SD / DVDRip IMDb
Parasite / Gisaengchung (2019) [Criterion Collection]

Parasite / Gisaengchung (2019) [Criterion Collection, Spine #1054]
DVDRip | MKV | AVC 720x360, ~ 1.4 Mbps | 2hr 12mn | 1.88 GB
Korean (한국어): AC3, 6 ch, 448 kbps \ English (commentary): AC3, 2 ch, 192 kbps
Subtitles: English
Genre: Comedy, Drama, Thriller



Director: Bong Joon Ho
Writer: Bong Joon Ho (story by), Bong Joon Ho (screenplay by)
Stars: Kang-ho Song, Sun-kyun Lee, Yeo-jeong Jo

A zeitgeist-defining sensation that distilled a global reckoning over class inequality into a tour de force of pop-cinema subversion, Bong Joon Ho’s genre-scrambling black-comic thriller confirms his status as one of the world’s foremost filmmakers. Two families in Seoul—one barely scraping by in a dank semibasement in a low-lying neighborhood, the other living in luxury in a modern architectural marvel overlooking the city—become entwined in a dangerous relationship that will lay bare the dark contradictions of capitalism with shocking ferocity. A bravura showcase for its director’s meticulously constructed set pieces, bolstered by a brilliant ensemble cast and stunning production design, Parasite cemented the New Korean Cinema as an undeniable international force when it swept almost every major prize from Cannes to the Academy Awards, where it made history as the first non-English-language film to win best picture.

Extras:
- New audio commentary featuring Bong and critic Tony Rayns




General
Unique ID : 192105376920882425572810100932151964019 (0x9086265891F1CA50B8B5BE2882317173)
Complete name : F:\Parasite.2019.Cr.Dr\Parasite.2019.Cr.Dr.mkv
Format : Matroska
Format version : Version 4
File size : 1.88 GiB
Duration : 2 h 12 min
Overall bit rate : 2 037 kb/s
Movie name : Release RSU75
Encoded date : UTC 2020-10-28 18:38:00
Writing application : mkvmerge v6.6.0 ('The Edge Of The In Between') built on Dec 1 2013 17:55:00
Writing library : libebml v1.3.0 + libmatroska v1.4.1

Video
ID : 1
Format : AVC
Format/Info : Advanced Video Codec
Format profile : High@L4.1
Format settings : CABAC / 4 Ref Frames
Format settings, CABAC : Yes
Format settings, Reference fra : 4 frames
Codec ID : V_MPEG4/ISO/AVC
Duration : 2 h 12 min
Bit rate : 1 400 kb/s
Width : 720 pixels
Height : 360 pixels
Display aspect ratio : 2.35:1
Frame rate mode : Constant
Frame rate : 23.976 (23976/1000) FPS
Color space : YUV
Chroma subsampling : 4:2:0
Bit depth : 8 bits
Scan type : Progressive
Bits/(Pixel*Frame) : 0.225
Stream size : 1.25 GiB (67%)
Writing library : x264 core 148 r2643 5c65704
Encoding settings : cabac=1 / ref=4 / deblock=1:0:0 / analyse=0x3:0x113 / me=umh / subme=8 / psy=1 / psy_rd=1.00:0.00 / mixed_ref=1 / me_range=24 / chroma_me=1 / trellis=1 / 8x8dct=1 / cqm=0 / deadzone=21,11 / fast_pskip=1 / chroma_qp_offset=-2 / threads=3 / lookahead_threads=1 / sliced_threads=0 / nr=0 / decimate=1 / interlaced=0 / bluray_compat=0 / constrained_intra=0 / bframes=3 / b_pyramid=0 / b_adapt=2 / b_bias=0 / direct=3 / weightb=1 / open_gop=0 / weightp=2 / keyint=250 / keyint_min=25 / scenecut=40 / intra_refresh=0 / rc_lookahead=40 / rc=abr / mbtree=1 / bitrate=1400 / ratetol=1.0 / qcomp=0.60 / qpmin=10 / qpmax=51 / qpstep=4 / ip_ratio=1.41 / aq=1:1.00
Language : English
Default : Yes
Forced : No
Duration_Source : General_Duration

Audio #1
ID : 2
Format : AC-3
Format/Info : Audio Coding 3
Commercial name : Dolby Digital
Codec ID : A_AC3
Duration : 2 h 12 min
Bit rate mode : Constant
Bit rate : 448 kb/s
Channel(s) : 6 channels
Channel layout : L R C LFE Ls Rs
Sampling rate : 48.0 kHz
Frame rate : 31.250 FPS (1536 SPF)
Compression mode : Lossy
Stream size : 424 MiB (22%)
Title : Surround 5.1
Language : Korean
Service kind : Complete Main
Default : Yes
Forced : No
Duration_Source : General_Duration

Audio #2
ID : 3
Format : AC-3
Format/Info : Audio Coding 3
Commercial name : Dolby Digital
Codec ID : A_AC3
Duration : 2 h 12 min
Bit rate mode : Constant
Bit rate : 192 kb/s
Channel(s) : 2 channels
Channel layout : L R
Sampling rate : 48.0 kHz
Frame rate : 31.250 FPS (1536 SPF)
Compression mode : Lossy
Stream size : 182 MiB (9%)
Title : Stereo
Language : English
Service kind : Complete Main
Default : No
Forced : No
Duration_Source : General_Duration

Text
ID : 4
Format : VobSub
Muxing mode : zlib
Codec ID : S_VOBSUB
Codec ID/Info : Picture based subtitle format used on DVDs
Language : English
Default : Yes
Forced : No

Menu
00:00:00.000 : en:Chapter 01
00:06:07.333 : en:Chapter 02
00:12:39.058 : en:Chapter 03
00:20:57.923 : en:Chapter 04
00:25:57.722 : en:Chapter 05
00:32:06.224 : en:Chapter 06
00:37:27.878 : en:Chapter 07
00:39:33.037 : en:Chapter 08
00:46:24.081 : en:Chapter 09
00:51:25.715 : en:Chapter 10
00:54:15.552 : en:Chapter 11
01:03:06.415 : en:Chapter 12
01:12:32.481 : en:Chapter 13
01:15:59.021 : en:Chapter 14
01:30:42.570 : en:Chapter 15
01:41:44.731 : en:Chapter 16
01:48:44.351 : en:Chapter 17
01:51:41.161 : en:Chapter 18
01:56:29.282 : en:Chapter 19
02:04:24.790 : en:Chapter 20



Screenshots DVDRip (click to enlarge to original size):

Parasite / Gisaengchung (2019) [Criterion Collection]





More in My Blog



If you like this release please visit my blog
In it you will find ALL the latest Criterion Collection releases