Tags
Language
Tags

Paris bei Nacht / L'amour est une fête (2018)

Posted By: Barfin
1080p (FullHD) / BDRip IMDb
Paris bei Nacht / L'amour est une fête (2018)

Paris bei Nacht / L'amour est une fête (2018)
BDRip 1080p | MKV / AVC@5725 kb/s | 1920x808 | 1h 58mn
Deutsch (dubbed): DTS, 1509 kb/s (6 ch) | Subtitles: Deutsch | 6.01 GB
Genre: Comedy

Paris, 1982: Franck und Serge haben sich in der letzten Zeit mit dem Betreiben einer Peepshow über Wasser gehalten. Doch das frivole Geschäft läuft immer schlechter. Dann aber kommen sie auf die Idee, einfach Schmuddelfilme mit ihren Tänzerinnen in den Hauptrollen zu drehen. Überraschenderweise stoßen sie damit auf eine enorme Nachfrage. So enorm sogar, dass die Konkurrenz Schläger entsendet, um das lukrative Geschäft der beiden zu Kleinholz zu verarbeiten. Am Abgrund stehend, müssen Franck und Serge gute Miene zum bösen Spiel machen und mit den Wettbewerbern anbandeln. Doch die beiden frischgebackenen Pornoproduzenten sind eigentlich gar nicht die, als die sie sich ausgeben.


General
Unique ID : 254963606627577443006092563918009664467 (0xBFD034585CC0B228AE7F49C8603403D3)
Complete name : G:\Paris.bei.Nacht.2018.German.1080p.BluRay.x264.mkv
Format : Matroska
Format version : Version 4
File size : 6.01 GiB
Duration : 1 h 58 min
Overall bit rate : 7 241 kb/s
Encoded date : UTC 2019-12-07 04:46:09
Writing application : mkvmerge v7.8.0 ('River Man') 32bit built on Apr 3 2015 12:11:22
Writing library : libebml v1.3.1 + libmatroska v1.4.2

Video
ID : 1
Format : AVC
Format/Info : Advanced Video Codec
Format profile : High@L4.1
Format settings : CABAC / 5 Ref Frames
Format settings, CABAC : Yes
Format settings, ReFrames : 5 frames
Codec ID : V_MPEG4/ISO/AVC
Duration : 1 h 58 min
Bit rate : 5 725 kb/s
Width : 1 920 pixels
Height : 808 pixels
Display aspect ratio : 2.40:1
Frame rate mode : Constant
Frame rate : 24.000 FPS
Color space : YUV
Chroma subsampling : 4:2:0
Bit depth : 8 bits
Scan type : Progressive
Bits/(Pixel*Frame) : 0.154
Stream size : 4.76 GiB (79%)
Writing library : x264 core 158 r2988 7817004
Encoding settings : cabac=1 / ref=5 / deblock=1:-1:-1 / analyse=0x3:0x113 / me=umh / subme=8 / psy=1 / psy_rd=1.00:0.00 / mixed_ref=1 / me_range=16 / chroma_me=1 / trellis=2 / 8x8dct=1 / cqm=0 / deadzone=21,11 / fast_pskip=0 / chroma_qp_offset=-2 / threads=24 / lookahead_threads=4 / sliced_threads=0 / nr=0 / decimate=1 / interlaced=0 / bluray_compat=0 / constrained_intra=0 / bframes=3 / b_pyramid=2 / b_adapt=1 / b_bias=0 / direct=3 / weightb=1 / open_gop=0 / weightp=2 / keyint=250 / keyint_min=24 / scenecut=40 / intra_refresh=0 / rc_lookahead=40 / rc=crf / mbtree=1 / crf=20.0 / qcomp=0.60 / qpmin=0 / qpmax=69 / qpstep=4 / ip_ratio=1.40 / aq=1:1.00
Default : Yes
Forced : No

Audio
ID : 2
Format : DTS
Format/Info : Digital Theater Systems
Codec ID : A_DTS
Duration : 1 h 58 min
Bit rate mode : Constant
Bit rate : 1 509 kb/s
Channel(s) : 6 channels
Channel layout : C L R Ls Rs LFE
Sampling rate : 48.0 kHz
Frame rate : 93.750 FPS (512 SPF)
Bit depth : 24 bits
Compression mode : Lossy
Stream size : 1.25 GiB (21%)
Language : German
Default : No
Forced : No

Text #1
ID : 3
Format : VobSub
Muxing mode : zlib
Codec ID : S_VOBSUB
Codec ID/Info : Picture based subtitle format used on DVDs
Duration : 1 h 52 min
Bit rate : 5 008 b/s
Count of elements : 1347
Stream size : 4.03 MiB (0%)
Language : German
Default : No
Forced : No

Text #2
ID : 4
Format : UTF-8
Codec ID : S_TEXT/UTF8
Codec ID/Info : UTF-8 Plain Text
Duration : 1 h 44 min
Bit rate : 0 b/s
Count of elements : 8
Stream size : 219 Bytes (0%)
Language : German
Default : Yes
Forced : Yes

Menu
00:00:00.000 : en:00:00:00.000
00:09:50.125 : en:00:09:50.125
00:20:11.542 : en:00:20:11.542
00:29:47.500 : en:00:29:47.500
00:39:47.000 : en:00:39:47.000
00:49:55.000 : en:00:49:55.000
00:59:33.667 : en:00:59:33.667
01:11:16.750 : en:01:11:16.750
01:19:28.083 : en:01:19:28.083
01:29:53.458 : en:01:29:53.458
01:40:45.542 : en:01:40:45.542
01:49:32.833 : en:01:49:32.833
01:53:52.083 : en:01:53:52.083




Screenshots

Paris bei Nacht / L'amour est une fête (2018)

Paris bei Nacht / L'amour est une fête (2018)

Paris bei Nacht / L'amour est une fête (2018)