The Hunger Games: Mockingjay - Part 2 (2015)

Posted By: JohnSmith
The Hunger Games: Mockingjay - Part 2 (2015)

The Hunger Games: Mockingjay - Part 2 (2015)
TS (Line) | AVI / XviD@1700 kb/s | 720x400 | 2h 5mn | 1.72 GB | English: AC3, 256 kb/s (2 ch)
TS 720p (Line) | MKV / AVC@3915 kb/s | 1280x720 | 2h 5mn | 3.72 GB | English: AC3, 256 kb/s (2 ch)
Genre: Adventure | Sci-Fi

After young Katniss Everdeen agrees to be the symbol of rebellion, the Mockingjay, she tries to return Peeta to his normal state, tries to get to the Capitol, and tries to deal with the battles coming her way…but all for her main goal; assassinating President Snow and returning peace to the Districts of Panem. As her squad starts to get smaller and smaller, will she make it to the Capitol? Will she get revenge on Snow? Or will her target change? Will she be with her "Star-Crossed Lover", Peeta? Or her long time friend, Gale? Deaths, Bombs, Bows and Arrows, A Love Triangle, Hope. What will happen?




General
Complete name : D:\Downloads\The.Hunger.Games-Mockingjay.Part.2.2015.HD-TS.XVID.AC3.HQ.Hive-CM8\The.Hunger.Games-Mockingjay.Part.2.2015.HD-TS.XVID.AC3.HQ.Hive-CM8.avi
Format : AVI
Format/Info : Audio Video Interleave
File size : 1.72 GiB
Duration : 2h 5mn
Overall bit rate : 1 967 Kbps
Writing application : Nandub v1.0rc2
Writing library : Nandub build 1853/release

Video
ID : 0
Format : MPEG-4 Visual
Format profile : Advanced Simple@L5
Format settings, BVOP : 2
Format settings, QPel : Yes
Format settings, GMC : No warppoints
Format settings, Matrix : Default (H.263)
Muxing mode : Packed bitstream
Codec ID : XVID
Codec ID/Hint : XviD
Duration : 2h 5mn
Bit rate : 1 699 Kbps
Width : 720 pixels
Height : 400 pixels
Display aspect ratio : 16:9
Frame rate : 29.970 fps
Color space : YUV
Chroma subsampling : 4:2:0
Bit depth : 8 bits
Scan type : Progressive
Compression mode : Lossy
Bits/(Pixel*Frame) : 0.197
Stream size : 1.49 GiB (86%)
Writing library : XviD 1.2.1 (UTC 2008-12-04)

Audio
ID : 1
Format : AC-3
Format/Info : Audio Coding 3
Codec ID : 2000
Duration : 2h 5mn
Bit rate mode : Constant
Bit rate : 256 Kbps
Channel(s) : 2 channels
Sampling rate : 48.0 KHz
Compression mode : Lossy
Stream size : 229 MiB (13%)
Alignment : Split accross interleaves
Interleave, duration : 33 ms (1.00 video frame)
Interleave, preload duratio : 500 ms



General
Unique ID : 240162591891310719534387936964073592580 (0xB4ADA1FA3BD132C099DADAF2A6D19704)
Complete name : D:\Downloads\The.Hunger.Games-Mockingjay.Part.2.2015.720p.HD-TS.x264.AC3.HQ.Hive-CM8\The.Hunger.Games-Mockingjay.Part.2.2015.720p.HD-TS.x264.AC3.HQ.Hive-CM8.mkv
Format : Matroska
Format version : Version 2
File size : 3.72 GiB
Duration : 2h 5mn
Overall bit rate mode : Variable
Overall bit rate : 4 255 Kbps
Encoded date : UTC 2015-11-23 21:06:11
Writing application : mkvmerge v5.6.0 ('Kenya Kane') built on May 27 2012 16:44:04
Writing library : libebml v1.2.3 + libmatroska v1.3.0

Video
ID : 1
Format : AVC
Format/Info : Advanced Video Codec
Format profile : High@L3.1
Format settings, CABAC : Yes
Format settings, ReFrames : 3 frames
Format settings, GOP : M=4, N=33
Muxing mode : Header stripping
Codec ID : V_MPEG4/ISO/AVC
Duration : 2h 5mn
Bit rate mode : Variable
Bit rate : 3 915 Kbps
Maximum bit rate : 8 000 Kbps
Width : 1 280 pixels
Height : 720 pixels
Display aspect ratio : 16:9
Frame rate mode : Constant
Frame rate : 29.970 fps
Standard : NTSC
Color space : YUV
Chroma subsampling : 4:2:0
Bit depth : 8 bits
Scan type : Progressive
Bits/(Pixel*Frame) : 0.142
Stream size : 3.42 GiB (92%)
Language : English
Default : Yes
Forced : No
Color range : Limited
Color primaries : BT.709
Transfer characteristics : BT.709
Matrix coefficients : BT.709

Audio
ID : 2
Format : AC-3
Format/Info : Audio Coding 3
Mode extension : CM (complete main)
Format settings, Endianness : Big
Muxing mode : Header stripping
Codec ID : A_AC3
Duration : 2h 5mn
Bit rate mode : Constant
Bit rate : 256 Kbps
Channel(s) : 2 channels
Channel positions : Front: L R
Sampling rate : 48.0 KHz
Compression mode : Lossy
Delay relative to video : 4ms
Stream size : 229 MiB (6%)
Language : English
Default : Yes
Forced : Yes


Screenshots TS

The Hunger Games: Mockingjay - Part 2 (2015)

The Hunger Games: Mockingjay - Part 2 (2015)

The Hunger Games: Mockingjay - Part 2 (2015)


Screenshots TS 720p

The Hunger Games: Mockingjay - Part 2 (2015)

The Hunger Games: Mockingjay - Part 2 (2015)

The Hunger Games: Mockingjay - Part 2 (2015)