Pawn Sacrifice (2014)

Posted By: JohnSmith
Pawn Sacrifice (2014)

Pawn Sacrifice (2014)
BDRip | MKV / AVC@724 kb/s | 720x300 | 1h 55mn | 708 MB | English: AAC, 128 kb/s (2 ch) | Subtiltes: English
BRRip | MKV / AVC@1355 kb/s | 720x304 | 1h 55mn | 1.46 GB | English: AC3, 448 kb/s (6 ch)
BDRip 720p | MKV / AVC@5249 kb/s | 1280x536 | 1h 55mn | 5.46 GB | English: DTS, 1509 kb/s (6 ch) | Subtiltes: English
BDRip 1080p | MKV / AVC@9308 kb/s | 1920x808 | 1h 55mn | 8.73 GB | English: DTS, 1509 kb/s (6 ch) | Subtiltes: English
Genre: Biography | Drama

In a gripping true story set during the height of the Cold War, American chess prodigy Bobby Fischer (Tobey Maguire) finds himself caught between two superpowers when he challenges the Soviet Empire. Also starring Liev Schreiber and Peter Sarsgaard, PAWN SACRIFICE chronicles Fischer's terrifying struggles with genius and madness, and the rise and fall of a kid from Brooklyn who captured the imagination of the world.




General
Unique ID : 219358111407342116032650258219678108218 (0xA506D5E551608A05AC0AF40D4F310A3A)
Complete name : D:\Downloads\Pawn.Sacrifice.2014.BDRip.x264-DiAMOND[rarbg]\Pawn.Sacrifice.2014.BDRip.x264-DiAMOND.mkv
Format : Matroska
Format version : Version 4 / Version 2
File size : 708 MiB
Duration : 1h 55mn
Overall bit rate : 855 Kbps
Encoded date : UTC 2015-12-09 19:23:40
Writing application : mkvmerge v8.5.2 ('DiAMOND') 64bit
Writing library : libebml v1.3.3 + libmatroska v1.4.4

Video
ID : 1
Format : AVC
Format/Info : Advanced Video Codec
Format profile : High@L3.1
Format settings, CABAC : Yes
Format settings, ReFrames : 5 frames
Codec ID : V_MPEG4/ISO/AVC
Duration : 1h 55mn
Width : 720 pixels
Height : 300 pixels
Display aspect ratio : 2.40:1
Frame rate mode : Constant
Frame rate : 23.976 fps
Color space : YUV
Chroma subsampling : 4:2:0
Bit depth : 8 bits
Scan type : Progressive
Writing library : x264 core 148 r2638 7599210
Encoding settings : cabac=1 / ref=5 / deblock=1:-2:-2 / analyse=0x3:0x113 / me=umh / subme=8 / psy=1 / psy_rd=1.00:0.00 / mixed_ref=1 / me_range=16 / chroma_me=1 / trellis=1 / 8x8dct=1 / cqm=0 / deadzone=21,11 / fast_pskip=1 / chroma_qp_offset=-2 / threads=9 / lookahead_threads=1 / sliced_threads=0 / nr=0 / decimate=1 / interlaced=0 / bluray_compat=0 / constrained_intra=0 / bframes=3 / b_pyramid=2 / b_adapt=2 / b_bias=0 / direct=3 / weightb=1 / open_gop=0 / weightp=2 / keyint=240 / keyint_min=24 / scenecut=40 / intra_refresh=0 / rc_lookahead=50 / rc=crf / mbtree=1 / crf=19.0 / qcomp=0.60 / qpmin=0 / qpmax=69 / qpstep=4 / ip_ratio=1.40 / aq=1:0.70
Language : English
Default : Yes
Forced : No
Color range : Limited
Matrix coefficients : BT.709

Audio
ID : 2
Format : AAC
Format/Info : Advanced Audio Codec
Format profile : LC
Codec ID : A_AAC
Duration : 1h 55mn
Channel(s) : 2 channels
Channel positions : Front: L R
Sampling rate : 48.0 KHz
Compression mode : Lossy
Delay relative to video : 9ms
Language : English
Default : Yes
Forced : No

Text #1
ID : 3
Format : UTF-8
Codec ID : S_TEXT/UTF8
Codec ID/Info : UTF-8 Plain Text
Title : english
Language : English
Default : No
Forced : No

Text #2
ID : 4
Format : UTF-8
Codec ID : S_TEXT/UTF8
Codec ID/Info : UTF-8 Plain Text
Title : english sdh
Language : English
Default : No
Forced : No

Menu
00:00:00.000 : en:00:00:00.000
00:06:40.025 : en:00:06:40.025
00:10:34.843 : en:00:10:34.843
00:15:15.540 : en:00:15:15.540
00:20:03.536 : en:00:20:03.536
00:26:01.852 : en:00:26:01.852
00:31:15.123 : en:00:31:15.123
00:38:54.040 : en:00:38:54.040
00:45:24.180 : en:00:45:24.180
00:51:00.140 : en:00:51:00.140
00:55:47.803 : en:00:55:47.803
00:59:35.614 : en:00:59:35.614
01:07:02.435 : en:01:07:02.435
01:10:49.537 : en:01:10:49.537
01:18:07.808 : en:01:18:07.808
01:22:53.677 : en:01:22:53.677
01:29:49.884 : en:01:29:49.884
01:35:09.495 : en:01:35:09.495
01:39:16.951 : en:01:39:16.951
01:48:15.114 : en:01:48:15.114



General
Unique ID : 105830804374998635101754756433834578780 (0x4F9E45823B83031CA65668B421FA935C)
Complete name : C:\Pawn.sacrifice.2014.BRRip.mkv
Format : Matroska
Format version : Version 2
File size : 1.46 GiB
Duration : 1h 55mn
Overall bit rate : 1 806 Kbps
Encoded date : UTC
Writing application : HandBrake 0.10.2 2015060900
Writing library : Lavf55.12.0

Video
ID : 1
Format : AVC
Format/Info : Advanced Video Codec
Format profile : Baseline@L3.1
Format settings, CABAC : No
Format settings, ReFrames : 1 frame
Codec ID : V_MPEG4/ISO/AVC
Duration : 1h 55mn
Bit rate : 1 355 Kbps
Width : 720 pixels
Height : 304 pixels
Display aspect ratio : 2.35:1
Frame rate mode : Constant
Frame rate : 23.976 fps
Color space : YUV
Chroma subsampling : 4:2:0
Bit depth : 8 bits
Scan type : Progressive
Bits/(Pixel*Frame) : 0.258
Stream size : 1.07 GiB (73%)
Writing library : x264 core 142 r2479 dd79a61
Encoding settings : cabac=0 / ref=1 / deblock=1:0:0 / analyse=0x1:0x111 / me=hex / subme=2 / psy=1 / psy_rd=1.00:0.00 / mixed_ref=0 / me_range=16 / chroma_me=1 / trellis=0 / 8x8dct=0 / cqm=0 / deadzone=21,11 / fast_pskip=1 / chroma_qp_offset=0 / threads=12 / lookahead_threads=2 / sliced_threads=0 / nr=0 / decimate=1 / interlaced=0 / bluray_compat=0 / constrained_intra=0 / bframes=0 / weightp=0 / keyint=240 / keyint_min=24 / scenecut=40 / intra_refresh=0 / rc_lookahead=10 / rc=2pass / mbtree=1 / bitrate=1355 / ratetol=1.0 / qcomp=0.60 / qpmin=0 / qpmax=69 / qpstep=4 / cplxblur=20.0 / qblur=0.5 / vbv_maxrate=14000 / vbv_bufsize=14000 / nal_hrd=none / filler=0 / ip_ratio=1.40 / aq=1:1.00
Default : Yes
Forced : No
Color range : Limited
Color primaries : BT.709
Transfer characteristics : BT.709
Matrix coefficients : BT.709

Audio
ID : 2
Format : AC-3
Format/Info : Audio Coding 3
Mode extension : CM (complete main)
Format settings, Endianness : Big
Codec ID : A_AC3
Duration : 1h 55mn
Bit rate mode : Constant
Bit rate : 448 Kbps
Channel(s) : 6 channels
Channel positions : Front: L C R, Side: L R, LFE
Sampling rate : 48.0 KHz
Compression mode : Lossy
Delay relative to video : -5ms
Stream size : 371 MiB (25%)
Title : Surround
Language : English
Default : Yes
Forced : No



General
Unique ID : 209439603145100859111180721170478753934 (0x9D9099AED19B8CD98E486C171503688E)
Complete name : C:\Pawn.Sacrifice.2014.720p.BluRay.x264-Replica.mkv
Format : Matroska
Format version : Version 4 / Version 2
File size : 5.46 GiB
Duration : 1h 55mn
Overall bit rate : 6 759 Kbps
Encoded date : UTC 2015-12-09 19:41:13
Writing application : mkvmerge v8.5.2 ('DiAMOND') 64bit
Writing library : libebml v1.3.3 + libmatroska v1.4.4

Video
ID : 1
Format : AVC
Format/Info : Advanced Video Codec
Format profile : High@L4.1
Format settings, CABAC : Yes
Format settings, ReFrames : 5 frames
Codec ID : V_MPEG4/ISO/AVC
Duration : 1h 55mn
Bit rate : 5 249 Kbps
Width : 1 280 pixels
Height : 536 pixels
Display aspect ratio : 2.40:1
Frame rate mode : Constant
Frame rate : 23.976 fps
Color space : YUV
Chroma subsampling : 4:2:0
Bit depth : 8 bits
Scan type : Progressive
Bits/(Pixel*Frame) : 0.319
Stream size : 4.13 GiB (76%)
Writing library : x264 core 148 r2638 7599210
Encoding settings : cabac=1 / ref=5 / deblock=1:0:0 / analyse=0x3:0x113 / me=umh / subme=8 / psy=1 / psy_rd=1.00:0.00 / mixed_ref=1 / me_range=16 / chroma_me=1 / trellis=1 / 8x8dct=1 / cqm=0 / deadzone=21,11 / fast_pskip=0 / chroma_qp_offset=-2 / threads=17 / lookahead_threads=2 / sliced_threads=0 / nr=0 / decimate=1 / interlaced=0 / bluray_compat=0 / constrained_intra=0 / bframes=3 / b_pyramid=2 / b_adapt=2 / b_bias=0 / direct=3 / weightb=1 / open_gop=0 / weightp=2 / keyint=250 / keyint_min=23 / scenecut=40 / intra_refresh=0 / rc_lookahead=50 / rc=2pass / mbtree=1 / bitrate=5249 / ratetol=1.0 / qcomp=0.60 / qpmin=0 / qpmax=69 / qpstep=4 / cplxblur=20.0 / qblur=0.5 / ip_ratio=1.40 / aq=1:1.00
Language : English
Default : Yes
Forced : No

Audio
ID : 2
Format : DTS
Format/Info : Digital Theater Systems
Mode : 16
Format settings, Endianness : Big
Codec ID : A_DTS
Duration : 1h 55mn
Bit rate mode : Constant
Bit rate : 1 509 Kbps
Channel(s) : 6 channels
Channel positions : Front: L C R, Side: L R, LFE
Sampling rate : 48.0 KHz
Bit depth : 24 bits
Compression mode : Lossy
Stream size : 1.22 GiB (22%)
Language : English
Default : Yes
Forced : No

Text #1
ID : 3
Format : UTF-8
Codec ID : S_TEXT/UTF8
Codec ID/Info : UTF-8 Plain Text
Title : english
Language : English
Default : No
Forced : No

Text #2
ID : 4
Format : UTF-8
Codec ID : S_TEXT/UTF8
Codec ID/Info : UTF-8 Plain Text
Title : english sdh
Language : English
Default : No
Forced : No

Menu
00:00:00.000 : en:00:00:00.000
00:06:40.025 : en:00:06:40.025
00:10:34.843 : en:00:10:34.843
00:15:15.540 : en:00:15:15.540
00:20:03.536 : en:00:20:03.536
00:26:01.852 : en:00:26:01.852
00:31:15.123 : en:00:31:15.123
00:38:54.040 : en:00:38:54.040
00:45:24.180 : en:00:45:24.180
00:51:00.140 : en:00:51:00.140
00:55:47.803 : en:00:55:47.803
00:59:35.614 : en:00:59:35.614
01:07:02.435 : en:01:07:02.435
01:10:49.537 : en:01:10:49.537
01:18:07.808 : en:01:18:07.808
01:22:53.677 : en:01:22:53.677
01:29:49.884 : en:01:29:49.884
01:35:09.495 : en:01:35:09.495
01:39:16.951 : en:01:39:16.951
01:48:15.114 : en:01:48:15.114



General
Unique ID : 225021895567693801800921438061518075074 (0xA949A403B69861D184C915940B6F34C2)
Complete name : D:\Downloads\Pawn.Sacrifice.2014.1080p.BluRay.x264-Replica[rarbg]\Pawn.Sacrifice.2014.1080p.BluRay.x264-Replica.mkv
Format : Matroska
Format version : Version 4 / Version 2
File size : 8.73 GiB
Duration : 1h 55mn
Overall bit rate : 10.8 Mbps
Encoded date : UTC 2015-12-09 20:35:31
Writing application : mkvmerge v8.5.2 ('DiAMOND') 64bit
Writing library : libebml v1.3.3 + libmatroska v1.4.4

Video
ID : 1
Format : AVC
Format/Info : Advanced Video Codec
Format profile : High@L4.1
Format settings, CABAC : Yes
Format settings, ReFrames : 5 frames
Codec ID : V_MPEG4/ISO/AVC
Duration : 1h 55mn
Bit rate : 9 308 Kbps
Width : 1 920 pixels
Height : 808 pixels
Display aspect ratio : 2.40:1
Frame rate mode : Constant
Frame rate : 23.976 fps
Color space : YUV
Chroma subsampling : 4:2:0
Bit depth : 8 bits
Scan type : Progressive
Bits/(Pixel*Frame) : 0.250
Stream size : 7.34 GiB (84%)
Writing library : x264 core 148 r2638 7599210
Encoding settings : cabac=1 / ref=5 / deblock=1:0:0 / analyse=0x3:0x113 / me=umh / subme=8 / psy=1 / psy_rd=1.00:0.00 / mixed_ref=1 / me_range=16 / chroma_me=1 / trellis=1 / 8x8dct=1 / cqm=0 / deadzone=21,11 / fast_pskip=0 / chroma_qp_offset=-2 / threads=24 / lookahead_threads=4 / sliced_threads=0 / nr=0 / decimate=1 / interlaced=0 / bluray_compat=0 / constrained_intra=0 / bframes=3 / b_pyramid=2 / b_adapt=2 / b_bias=0 / direct=3 / weightb=1 / open_gop=0 / weightp=2 / keyint=250 / keyint_min=23 / scenecut=40 / intra_refresh=0 / rc_lookahead=50 / rc=2pass / mbtree=1 / bitrate=9308 / ratetol=1.0 / qcomp=0.60 / qpmin=0 / qpmax=69 / qpstep=4 / cplxblur=20.0 / qblur=0.5 / ip_ratio=1.40 / aq=1:1.00
Language : English
Default : Yes
Forced : No

Audio
ID : 2
Format : DTS
Format/Info : Digital Theater Systems
Mode : 16
Format settings, Endianness : Big
Codec ID : A_DTS
Duration : 1h 55mn
Bit rate mode : Constant
Bit rate : 1 509 Kbps
Channel(s) : 6 channels
Channel positions : Front: L C R, Side: L R, LFE
Sampling rate : 48.0 KHz
Bit depth : 24 bits
Compression mode : Lossy
Stream size : 1.22 GiB (14%)
Language : English
Default : Yes
Forced : No

Text #1
ID : 3
Format : UTF-8
Codec ID : S_TEXT/UTF8
Codec ID/Info : UTF-8 Plain Text
Title : english
Language : English
Default : No
Forced : No

Text #2
ID : 4
Format : UTF-8
Codec ID : S_TEXT/UTF8
Codec ID/Info : UTF-8 Plain Text
Title : english sdh
Language : English
Default : No
Forced : No

Menu
00:00:00.000 : en:00:00:00.000
00:06:40.025 : en:00:06:40.025
00:10:34.843 : en:00:10:34.843
00:15:15.540 : en:00:15:15.540
00:20:03.536 : en:00:20:03.536
00:26:01.852 : en:00:26:01.852
00:31:15.123 : en:00:31:15.123
00:38:54.040 : en:00:38:54.040
00:45:24.180 : en:00:45:24.180
00:51:00.140 : en:00:51:00.140
00:55:47.803 : en:00:55:47.803
00:59:35.614 : en:00:59:35.614
01:07:02.435 : en:01:07:02.435
01:10:49.537 : en:01:10:49.537
01:18:07.808 : en:01:18:07.808
01:22:53.677 : en:01:22:53.677
01:29:49.884 : en:01:29:49.884
01:35:09.495 : en:01:35:09.495
01:39:16.951 : en:01:39:16.951
01:48:15.114 : en:01:48:15.114


Screenshots BDRip

Pawn Sacrifice (2014)

Pawn Sacrifice (2014)

Pawn Sacrifice (2014)


Screenshots BRRip

Pawn Sacrifice (2014)

Pawn Sacrifice (2014)

Pawn Sacrifice (2014)


Screenshots BDRip 720p

Pawn Sacrifice (2014)

Pawn Sacrifice (2014)

Pawn Sacrifice (2014)


Screenshots BDRip 1080p

Pawn Sacrifice (2014)

Pawn Sacrifice (2014)

Pawn Sacrifice (2014)

BRRip
http://www.nitroflare.com/view/1EF0B0B782D5D5F/Pawn.sacrifice.2014.BRRip.part1.rar
http://www.nitroflare.com/view/4C2F6941BA07AB8/Pawn.sacrifice.2014.BRRip.part2.rar
http://www.nitroflare.com/view/95C375347059550/Pawn.sacrifice.2014.BRRip.part3.rar
BDRip 720p
http://www.nitroflare.com/view/51D6DB841A5BCFD/Pawn.Sacrifice.2014.720p.BluRay.x264-Replica.part1.rar
http://www.nitroflare.com/view/655BB393B25C510/Pawn.Sacrifice.2014.720p.BluRay.x264-Replica.part2.rar
http://www.nitroflare.com/view/7D9E8329F898228/Pawn.Sacrifice.2014.720p.BluRay.x264-Replica.part3.rar
http://www.nitroflare.com/view/5795AA9794F51C6/Pawn.Sacrifice.2014.720p.BluRay.x264-Replica.part4.rar
http://www.nitroflare.com/view/DC8A7288E1F441D/Pawn.Sacrifice.2014.720p.BluRay.x264-Replica.part5.rar
http://www.nitroflare.com/view/3D689EC1A74BDCB/Pawn.Sacrifice.2014.720p.BluRay.x264-Replica.part6.rar
BDRip 1080p
http://www.nitroflare.com/view/ADB86A97132075E/Pawn.Sacrifice.2014.1080p.BluRay.x264-Replica.part01.rar
http://www.nitroflare.com/view/BE2D849FE803ED1/Pawn.Sacrifice.2014.1080p.BluRay.x264-Replica.part02.rar
http://www.nitroflare.com/view/9BEDCD24BD7642E/Pawn.Sacrifice.2014.1080p.BluRay.x264-Replica.part03.rar
http://www.nitroflare.com/view/2CB189839D81D33/Pawn.Sacrifice.2014.1080p.BluRay.x264-Replica.part04.rar
http://www.nitroflare.com/view/DED4888937D56B1/Pawn.Sacrifice.2014.1080p.BluRay.x264-Replica.part05.rar
http://www.nitroflare.com/view/EF87DBA555A7631/Pawn.Sacrifice.2014.1080p.BluRay.x264-Replica.part06.rar
http://www.nitroflare.com/view/E2E1B4C09D04D48/Pawn.Sacrifice.2014.1080p.BluRay.x264-Replica.part07.rar
http://www.nitroflare.com/view/E28B8E52700B351/Pawn.Sacrifice.2014.1080p.BluRay.x264-Replica.part08.rar
http://www.nitroflare.com/view/8A556C27218963E/Pawn.Sacrifice.2014.1080p.BluRay.x264-Replica.part09.rar