Tags
Language
Tags

People on Sunday / Menschen am Sonntag (1930) [British Film Institute]

Posted By: RSU75
1080p (FullHD) / BDRip IMDb
People on Sunday / Menschen am Sonntag (1930) [British Film Institute]

People on Sunday / Menschen am Sonntag (1930) [British Film Institute]
BDRip | MKV | AVC, 1440x1080, ~ 3.7 Mbps | 1hr 14mn | 2.29 GB
English: AC3, 2 ch, 256 kbps \ English: AC3, 2 ch, 256 kbps \ English: AC3, 2 ch, 192 kbps
BDRip | MKV | AVC, 960x720, ~ 2.5 Mbps | 1hr 14mn | 1.67 MB
English: AC3, 2 ch, 256 kbps \ English: AC3, 2 ch, 256 kbps \ English: AC3, 2 ch, 192 kbps
Subtitles: Deutsch intertitles and English subtitles
Genre: Comedy, Drama, Romance, Silent



Director: Robert Siodmak, Edgar G. Ulmer
Writers: Curt Siodmak (based on a reportage by) (as Kurt Siodmak), Billy Wilder (screenplay) (as Billie Wilder)
Stars: Erwin Splettstößer, Brigitte Borchert, Wolfgang von Waltershausen

Film Distributor: BFI (British Film Institute)

A tale of five young Berliners – a taxi driver, a travelling wine dealer, a record shop sales girl, a film extra and a model – on a typical Sunday. In this vivid snapshot of Berlin life, a trip to the countryside reveals the flirtations, rivalries, jealousies, and petty irritations common to any group outing. All too soon it is the end of the day, and the prospect of Monday looms, and the return to the weekday routine.

Extras:
- Two vibrant scores by leading Australian composer Elena Kats-Chernin and the experimental Icelandic group múm
- Audio commentary by critic and author Adrian Martin




General
Unique ID : 182772804849423551258054188576680757050 (0x8980C304886529079D9064057C18C73A)
Complete name : F:\PeopleOnSunday.1930.BFI.1p\PeopleOnSunday.1930.BFI.1p.mkv
Format : Matroska
Format version : Version 4
File size : 2.29 GiB
Duration : 1 h 14 min
Overall bit rate : 4 397 kb/s
Movie name : Release RSU75
Encoded date : UTC 2020-09-23 04:17:18
Writing application : mkvmerge v6.6.0 ('The Edge Of The In Between') built on Dec 1 2013 17:55:00
Writing library : libebml v1.3.0 + libmatroska v1.4.1

Video
ID : 1
Format : AVC
Format/Info : Advanced Video Codec
Format profile : High@L4.1
Format settings : CABAC / 4 Ref Frames
Format settings, CABAC : Yes
Format settings, Reference fra : 4 frames
Codec ID : V_MPEG4/ISO/AVC
Duration : 1 h 14 min
Bit rate : 3 700 kb/s
Width : 1 440 pixels
Height : 1 080 pixels
Display aspect ratio : 4:3
Frame rate mode : Constant
Frame rate : 24.000 FPS
Color space : YUV
Chroma subsampling : 4:2:0
Bit depth : 8 bits
Scan type : Progressive
Bits/(Pixel*Frame) : 0.099
Stream size : 1.88 GiB (82%)
Writing library : x264 core 148 r2643 5c65704
Encoding settings : cabac=1 / ref=4 / deblock=1:0:0 / analyse=0x3:0x113 / me=umh / subme=8 / psy=1 / psy_rd=1.00:0.00 / mixed_ref=1 / me_range=24 / chroma_me=1 / trellis=1 / 8x8dct=1 / cqm=0 / deadzone=21,11 / fast_pskip=1 / chroma_qp_offset=-2 / threads=3 / lookahead_threads=1 / sliced_threads=0 / nr=0 / decimate=1 / interlaced=0 / bluray_compat=0 / constrained_intra=0 / bframes=3 / b_pyramid=0 / b_adapt=2 / b_bias=0 / direct=3 / weightb=1 / open_gop=0 / weightp=2 / keyint=250 / keyint_min=25 / scenecut=40 / intra_refresh=0 / rc_lookahead=40 / rc=abr / mbtree=1 / bitrate=3700 / ratetol=1.0 / qcomp=0.60 / qpmin=10 / qpmax=51 / qpstep=4 / ip_ratio=1.41 / aq=1:1.00
Language : English
Default : Yes
Forced : No
Duration_Source : General_Duration

Audio #1
ID : 2
Format : AC-3
Format/Info : Audio Coding 3
Commercial name : Dolby Digital
Codec ID : A_AC3
Duration : 1 h 14 min
Bit rate mode : Constant
Bit rate : 256 kb/s
Channel(s) : 2 channels
Channel layout : L R
Sampling rate : 44.1 kHz
Frame rate : 28.711 FPS (1536 SPF)
Compression mode : Lossy
Stream size : 136 MiB (6%)
Title : Stereo
Language : English
Service kind : Complete Main
Default : Yes
Forced : No
Duration_Source : General_Duration

Audio #2
ID : 3
Format : AC-3
Format/Info : Audio Coding 3
Commercial name : Dolby Digital
Codec ID : A_AC3
Duration : 1 h 14 min
Bit rate mode : Constant
Bit rate : 256 kb/s
Channel(s) : 2 channels
Channel layout : L R
Sampling rate : 44.1 kHz
Frame rate : 28.711 FPS (1536 SPF)
Compression mode : Lossy
Stream size : 136 MiB (6%)
Title : Stereo
Language : English
Service kind : Complete Main
Default : No
Forced : No
Duration_Source : General_Duration

Audio #3
ID : 4
Format : AC-3
Format/Info : Audio Coding 3
Commercial name : Dolby Digital
Codec ID : A_AC3
Duration : 1 h 14 min
Bit rate mode : Constant
Bit rate : 192 kb/s
Channel(s) : 2 channels
Channel layout : L R
Sampling rate : 48.0 kHz
Frame rate : 31.250 FPS (1536 SPF)
Compression mode : Lossy
Stream size : 102 MiB (4%)
Title : Stereo
Language : English
Service kind : Commentary
Default : No
Forced : No
Duration_Source : General_Duration

Text
ID : 5
Format : PGS
Muxing mode : zlib
Codec ID : S_HDMV/PGS
Codec ID/Info : Picture based subtitle format used on BDs/HD-DVDs
Language : English
Default : No
Forced : No

Menu
00:00:00.000 : en:Chapter 01
00:01:25.083 : en:Chapter 02
00:03:35.750 : en:Chapter 03
00:11:50.875 : en:Chapter 04
00:19:33.583 : en:Chapter 05
00:22:44.750 : en:Chapter 06
00:27:45.625 : en:Chapter 07
00:34:07.791 : en:Chapter 08
00:39:55.583 : en:Chapter 09
00:46:49.041 : en:Chapter 10
00:58:47.708 : en:Chapter 11
01:08:23.083 : en:Chapter 12
01:11:17.083 : en:Chapter 13






General
Unique ID : 232952920273272343291039459282924098142 (0xAF4119B8F86E0938910FE54B44D4525E)
Complete name : F:\PeopleOnSunday.1930.BFI.7p\PeopleOnSunday.1930.BFI.7p.mkv
Format : Matroska
Format version : Version 4
File size : 1.67 GiB
Duration : 1 h 14 min
Overall bit rate : 3 200 kb/s
Movie name : Release RSU75
Encoded date : UTC 2020-09-23 18:06:44
Writing application : mkvmerge v6.6.0 ('The Edge Of The In Between') built on Dec 1 2013 17:55:00
Writing library : libebml v1.3.0 + libmatroska v1.4.1

Video
ID : 1
Format : AVC
Format/Info : Advanced Video Codec
Format profile : High@L4.1
Format settings : CABAC / 4 Ref Frames
Format settings, CABAC : Yes
Format settings, Reference fra : 4 frames
Codec ID : V_MPEG4/ISO/AVC
Duration : 1 h 14 min
Bit rate : 2 500 kb/s
Width : 960 pixels
Height : 720 pixels
Display aspect ratio : 4:3
Frame rate mode : Constant
Frame rate : 24.000 FPS
Color space : YUV
Chroma subsampling : 4:2:0
Bit depth : 8 bits
Scan type : Progressive
Bits/(Pixel*Frame) : 0.151
Stream size : 1.27 GiB (76%)
Writing library : x264 core 148 r2643 5c65704
Encoding settings : cabac=1 / ref=4 / deblock=1:0:0 / analyse=0x3:0x113 / me=umh / subme=8 / psy=1 / psy_rd=1.00:0.00 / mixed_ref=1 / me_range=24 / chroma_me=1 / trellis=1 / 8x8dct=1 / cqm=0 / deadzone=21,11 / fast_pskip=1 / chroma_qp_offset=-2 / threads=3 / lookahead_threads=1 / sliced_threads=0 / nr=0 / decimate=1 / interlaced=0 / bluray_compat=0 / constrained_intra=0 / bframes=3 / b_pyramid=0 / b_adapt=2 / b_bias=0 / direct=3 / weightb=1 / open_gop=0 / weightp=2 / keyint=250 / keyint_min=25 / scenecut=40 / intra_refresh=0 / rc_lookahead=40 / rc=abr / mbtree=1 / bitrate=2500 / ratetol=1.0 / qcomp=0.60 / qpmin=10 / qpmax=51 / qpstep=4 / ip_ratio=1.41 / aq=1:1.00
Language : English
Default : Yes
Forced : No
Duration_Source : General_Duration

Audio #1
ID : 2
Format : AC-3
Format/Info : Audio Coding 3
Commercial name : Dolby Digital
Codec ID : A_AC3
Duration : 1 h 14 min
Bit rate mode : Constant
Bit rate : 256 kb/s
Channel(s) : 2 channels
Channel layout : L R
Sampling rate : 44.1 kHz
Frame rate : 28.711 FPS (1536 SPF)
Compression mode : Lossy
Stream size : 136 MiB (8%)
Title : Stereo
Language : English
Service kind : Complete Main
Default : Yes
Forced : No
Duration_Source : General_Duration

Audio #2
ID : 3
Format : AC-3
Format/Info : Audio Coding 3
Commercial name : Dolby Digital
Codec ID : A_AC3
Duration : 1 h 14 min
Bit rate mode : Constant
Bit rate : 256 kb/s
Channel(s) : 2 channels
Channel layout : L R
Sampling rate : 44.1 kHz
Frame rate : 28.711 FPS (1536 SPF)
Compression mode : Lossy
Stream size : 136 MiB (8%)
Title : Stereo
Language : English
Service kind : Complete Main
Default : No
Forced : No
Duration_Source : General_Duration

Audio #3
ID : 4
Format : AC-3
Format/Info : Audio Coding 3
Commercial name : Dolby Digital
Codec ID : A_AC3
Duration : 1 h 14 min
Bit rate mode : Constant
Bit rate : 192 kb/s
Channel(s) : 2 channels
Channel layout : L R
Sampling rate : 48.0 kHz
Frame rate : 31.250 FPS (1536 SPF)
Compression mode : Lossy
Stream size : 102 MiB (6%)
Title : Stereo
Language : English
Service kind : Commentary
Default : No
Forced : No
Duration_Source : General_Duration

Text
ID : 5
Format : PGS
Muxing mode : zlib
Codec ID : S_HDMV/PGS
Codec ID/Info : Picture based subtitle format used on BDs/HD-DVDs
Language : English
Default : No
Forced : No

Menu
00:00:00.000 : en:Chapter 01
00:01:25.083 : en:Chapter 02
00:03:35.750 : en:Chapter 03
00:11:50.875 : en:Chapter 04
00:19:33.583 : en:Chapter 05
00:22:44.750 : en:Chapter 06
00:27:45.625 : en:Chapter 07
00:34:07.791 : en:Chapter 08
00:39:55.583 : en:Chapter 09
00:46:49.041 : en:Chapter 10
00:58:47.708 : en:Chapter 11
01:08:23.083 : en:Chapter 12
01:11:17.083 : en:Chapter 13




Screenshots 1080p (click to enlarge to original size):

People on Sunday / Menschen am Sonntag (1930) [British Film Institute]

People on Sunday / Menschen am Sonntag (1930) [British Film Institute]

People on Sunday / Menschen am Sonntag (1930) [British Film Institute]



Screenshots 720p (click to enlarge to original size):

People on Sunday / Menschen am Sonntag (1930) [British Film Institute]





More in My Blog



If you like this release please visit my blog
In it you will find ALL the latest BFI releases