Peppa Pig: My First Cinema Experience (2017)

Posted By: Without
Peppa Pig: My First Cinema Experience (2017)

Peppa Pig: My First Cinema Experience (2017)
HDRip | AVI | 720x384 | XviD@2025 kb/s | English AC3@384 kb/s | 6 channels | 1 h 10 min | 1.18 GB
Genre: Animation

A 72 minute theatrical release comprised of previously unreleased episodes and musical interludes of the animated television series featuring stage-show versions of Peppa Pig and her brother George.



General
Peppa Pig My First Cinema Experience 2017.HDRip.XviD.AC3-EVO\Peppa Pig My First Cinema Experience 2017.HDRip.XviD.AC3-EVO.avi
Format : AVI
Format/Info : Audio Video Interleave
File size : 1.18 GiB
Duration : 1 h 10 min
Overall bit rate : 2 419 kb/s
Writing library : VirtualDub build 32593/release

Video
ID : 0
Format : MPEG-4 Visual
Format profile : Advanced Simple@L5
Format settings, BVOP : 2
Format settings, QPel : No
Format settings, GMC : No warppoints
Format settings, Matrix : Default (H.263)
Muxing mode : Packed bitstream
Codec ID : XVID
Codec ID/Hint : XviD
Duration : 1 h 10 min
Bit rate : 2 025 kb/s
Width : 720 pixels
Height : 384 pixels
Display aspect ratio : 1.85:1
Frame rate : 25.000 FPS
Color space : YUV
Chroma subsampling : 4:2:0
Bit depth : 8 bits
Scan type : Progressive
Compression mode : Lossy
Bits/(Pixel*Frame) : 0.293
Stream size : 1 014 MiB (84%)
Writing library : XviD 66

Audio
ID : 1
Format : AC-3
Format/Info : Audio Coding 3
Mode extension : CM (complete main)
Format settings, Endianness : Big
Codec ID : 2000
Duration : 1 h 10 min
Bit rate mode : Constant
Bit rate : 384 kb/s
Channel(s) : 6 channels
Channel positions : Front: L C R, Side: L R, LFE
Sampling rate : 48.0 kHz
Frame rate : 31.250 FPS (1536 spf)
Bit depth : 16 bits
Compression mode : Lossy
Stream size : 192 MiB (16%)
Alignment : Aligned on interleaves
Interleave, duration : 40 ms (1.00 video frame)
Interleave, preload duration : 512 ms


HDRip Screenshots

Peppa Pig: My First Cinema Experience (2017)

Peppa Pig: My First Cinema Experience (2017)

Peppa Pig: My First Cinema Experience (2017)


Come Visit My Blog (•‿•)