Please register here if you want to download anything!

If domain in your address bar is different from the list below
PLEASE LEAVE THAT SITE IMMEDIATELY
❗IT'S A DANGEROUS FAKE❗



Spicy Magazines for Men! ;-)

One on Top of the Other / Una sull'altra (1969)

Posted By: Tavaz
720p (HD) / BDRip IMDb
One on Top of the Other / Una sull'altra (1969)

One on Top of the Other / Una sull'altra (1969)
BDRip | MKV | 1280x690 | English / Italian | H264 @ 13800 kbps | AAC @ 135 kbps | 1 h 47 min | 10.6 GiB
Subtitles: English
Genre: Mystery, Thriller

An insurance scam lands a man on death row for murdering his wife. What everyone doesn't know is she really isn't dead.

Perversion.Story.1969.720p.BluRay.AAC1.0.x264-DON=6121babd6a7d4c18b95158457cd23a6f.part1.rar (5.6 GB)
Perversion.Story.1969.720p.BluRay.AAC1.0.x264-DON=6121babd6a7d4c18b95158457cd23a6f.part2.rar (5.1 GB)



General
Unique ID : 67447168879056315561695318577482201757 (0x32BDDA2B24F94EDDB789553681927A9D)
Complete name : ./8fb1ba8833444720928222879374b64c.mkv
Format : Matroska
Format version : Version 4 / Version 2
File size : 10.6 GiB
Duration : 1 h 47 min
Overall bit rate : 14.1 Mb/s
Encoded date : UTC 2018-09-16 12:57:30
Writing application : mkvmerge v26.0.0 ('In The Game') 64-bit
Writing library : libebml v1.3.6 + libmatroska v1.4.9

Video
ID : 1
Format : AVC
Format/Info : Advanced Video Codec
Format profile : High@L4.1
Format settings : CABAC / 9 Ref Frames
Format settings, CABAC : Yes
Format settings, RefFrames : 9 frames
Codec ID : V_MPEG4/ISO/AVC
Duration : 1 h 47 min
Bit rate : 13.8 Mb/s
Width : 1 280 pixels
Height : 690 pixels
Display aspect ratio : 1.85:1
Frame rate mode : Constant
Frame rate : 23.976 (24000/1001) FPS
Color space : YUV
Chroma subsampling : 4:2:0
Bit depth : 8 bits
Scan type : Progressive
Bits/(Pixel*Frame) : 0.652
Stream size : 10.4 GiB (98%)
Title : Perversion.Story.(1969).720p.BluRay.AAC1.0.x264-DON
Writing library : x264 core 155 r2901 7d0ff22
Encoding settings : cabac=1 / ref=9 / deblock=1:-3:-3 / analyse=0x3:0x113 / me=umh / subme=11 / psy=1 / psy_rd=1.04:0.00 / mixed_ref=1 / me_range=48 / chroma_me=1 / trellis=2 / 8x8dct=1 / cqm=0 / deadzone=21,11 / fast_pskip=0 / chroma_qp_offset=-2 / threads=22 / lookahead_threads=5 / sliced_threads=0 / slices=4 / nr=0 / decimate=0 / interlaced=0 / bluray_compat=0 / constrained_intra=0 / bframes=16 / b_pyramid=2 / b_adapt=2 / b_bias=0 / direct=3 / weightb=1 / open_gop=0 / weightp=2 / keyint=250 / keyint_min=23 / scenecut=40 / intra_refresh=0 / rc_lookahead=60 / rc=2pass / mbtree=0 / bitrate=13800 / ratetol=1.0 / qcomp=0.60 / qpmin=0 / qpmax=69 / qpstep=4 / cplxblur=20.0 / qblur=0.5 / vbv_maxrate=62500 / vbv_bufsize=78125 / nal_hrd=none / filler=0 / ip_ratio=1.40 / pb_ratio=1.30 / aq=3:0.65
Language : English
Default : Yes
Forced : No

Audio #1
ID : 2
Format : AAC
Format/Info : Advanced Audio Codec
Format profile : LC
Codec ID : A_AAC-2
Duration : 1 h 47 min
Bit rate : 135 kb/s
Channel(s) : 1 channel
Channel positions : Front: C
Sampling rate : 48.0 kHz
Frame rate : 46.875 FPS (1024 SPF)
Compression mode : Lossy
Delay relative to video : 9 ms
Stream size : 104 MiB (1%)
Title : AAC1.0 @ 135 Kbps (quality=0.7)
Language : English
Default : Yes
Forced : No

Audio #2
ID : 3
Format : AAC
Format/Info : Advanced Audio Codec
Format profile : LC
Codec ID : A_AAC-2
Duration : 1 h 47 min
Bit rate : 132 kb/s
Channel(s) : 1 channel
Channel positions : Front: C
Sampling rate : 48.0 kHz
Frame rate : 46.875 FPS (1024 SPF)
Compression mode : Lossy
Delay relative to video : 9 ms
Stream size : 100 MiB (1%)
Title : AAC1.0 @ 132 Kbps (quality=0.7)
Language : Italian
Default : No
Forced : No

Text
ID : 4
Format : UTF-8
Codec ID : S_TEXT/UTF8
Codec ID/Info : UTF-8 Plain Text
Duration : 1 h 46 min
Bit rate : 39 b/s
Count of elements : 937
Stream size : 30.5 KiB (0%)
Title : For Italian Track (srt)
Language : English
Default : No
Forced : No

Menu
00:00:00.000 : :Chapter 1
00:08:24.254 : :Chapter 2
00:18:35.156 : :Chapter 3
00:23:17.271 : :Chapter 4
00:30:12.853 : :Chapter 5
00:39:27.407 : :Chapter 6
00:48:41.752 : :Chapter 7
00:54:59.129 : :Chapter 8
01:05:38.935 : :Chapter 9
01:16:20.159 : :Chapter 10
01:25:55.108 : :Chapter 11
01:35:08.912 : :Chapter 12





One on Top of the Other / Una sull'altra (1969)


One on Top of the Other / Una sull'altra (1969)


One on Top of the Other / Una sull'altra (1969)


One on Top of the Other / Una sull'altra (1969)


One on Top of the Other / Una sull'altra (1969)