Philip K. Dick's Electric Dreams S01E01 (2017)

Posted By: Without
Philip K. Dick's Electric Dreams S01E01 (2017)

Philip K. Dick's Electric Dreams S01E01 (2017)
WEBRip 1080p | MKV | 1920x1080 | AVC@6171 kb/s | English AC3@448 kb/s
Subs: English | 6 channels | 54 min 20 s | 2.51 GB
Genre: Sci-Fi

A sci-fi anthology series with stand-alone episodes based on the works of Phillip K. Dick.



General
Philip.K.Dicks.Electric.Dreams.S01E01.The.Hood.Maker.1080p.STAN.WEB-DL.DDP5.1.H.264-NTb\Philip.K.Dicks.Electric.Dreams.S01E01.The.Hood.Maker.1080p.STAN.WEB-DL.DDP5.1.H.264-NTb.mkv
Format : Matroska
Format version : Version 4 / Version 2
File size : 2.51 GiB
Duration : 54 min 20 s
Overall bit rate : 6 621 kb/s
Encoded date : UTC 2017-09-18 14:04:34
Writing application : mkvmerge v9.3.1 ('Mask Machine') 64bit
Writing library : libebml v1.3.4 + libmatroska v1.4.5

Video
ID : 1
Format : AVC
Format/Info : Advanced Video Codec
Format profile : High@L4
Format settings, CABAC : Yes
Format settings, ReFrames : 4 frames
Codec ID : V_MPEG4/ISO/AVC
Duration : 54 min 20 s
Bit rate : 6 171 kb/s
Width : 1 920 pixels
Height : 1 080 pixels
Display aspect ratio : 16:9
Frame rate mode : Constant
Frame rate : 23.976 (24000/1001) FPS
Color space : YUV
Chroma subsampling : 4:2:0
Bit depth : 8 bits
Scan type : Progressive
Bits/(Pixel*Frame) : 0.124
Stream size : 2.34 GiB (93%)
Writing library : Zencoder Video Encoding System
Default : Yes
Forced : No

Audio
ID : 2
Format : E-AC-3
Format/Info : Enhanced Audio Coding 3
Format settings, Endianness : Big
Codec ID : A_EAC3
Duration : 54 min 20 s
Bit rate mode : Constant
Bit rate : 448 kb/s
Channel(s) : 6 channels
Channel positions : Front: L C R, Side: L R, LFE
Sampling rate : 48.0 kHz
Frame rate : 187.500 FPS (256 spf)
Compression mode : Lossy
Stream size : 174 MiB (7%)
Language : English
Default : Yes
Forced : No

Text
ID : 3
Format : UTF-8
Codec ID : S_TEXT/UTF8
Codec ID/Info : UTF-8 Plain Text
Duration : 52 min 42 s
Bit rate : 60 b/s
Count of elements : 821
Stream size : 23.3 KiB (0%)
Language : English
Default : No
Forced : No


WEBRip 1080p Screenshots

Philip K. Dick's Electric Dreams S01E01 (2017)

Philip K. Dick's Electric Dreams S01E01 (2017)

Philip K. Dick's Electric Dreams S01E01 (2017)


Come Visit My Blog (•‿•)