Photo de famille (2018)

Posted By: JohnSmith
1080p (FullHD) / WEB-DL IMDb
Photo de famille (2018)

Photo de famille (2018)
WEB-DL 1080p | MKV / AVC@4580 kb/s | 1920x800 | 1h 34mn | Français (VFi): AC3, 384 kb/s (6 ch) | 3.27 GB
Genre: Comedy

Gabrielle, Elsa et Mao sont frères et sœurs, mais ne se côtoient pas. Surtout pas.
La première est « statue » pour touristes, au grand dam de son fils ado. Elsa, elle, est en colère contre la terre entière et désespère de tomber enceinte. Et Mao, game designer de génie chroniquement dépressif, noie sa mélancolie dans l’alcool et la psychanalyse.
Quant à leurs parents, Pierre et Claudine, séparés de longue date, ils n’ont jamais rien fait pour resserrer les liens de la famille.
Pourtant, au moment de l’enterrement du grand-père, ils vont devoir se réunir, et répondre, ensemble, à la question qui fâche : « Que faire de Mamie ? »


General
Unique ID : 172471691873743239806000086496110721592 (0x81C0D6EF9FD3FA83AC2E66D8FD2C3A38)
Complete name : C:\Photo.De.Famille.2018.FRENCH.1080p.WEB.mkv
Format : Matroska
Format version : Version 4
File size : 3.27 GiB
Duration : 1 h 34 min
Overall bit rate : 4 968 kb/s
Encoded date : UTC 2019-01-01 19:59:40
Writing application : mkvmerge v29.0.0 ('Like It Or Not') 64-bit
Writing library : libebml v1.3.6 + libmatroska v1.4.9

Video
ID : 1
Format : AVC
Format/Info : Advanced Video Codec
Format profile : High@L4
Format settings : CABAC / 5 Ref Frames
Format settings, CABAC : Yes
Format settings, Reference : 5 frames
Codec ID : V_MPEG4/ISO/AVC
Duration : 1 h 34 min
Bit rate : 4 582 kb/s
Width : 1 920 pixels
Height : 800 pixels
Display aspect ratio : 2.40:1
Frame rate mode : Constant
Frame rate : 25.000 FPS
Color space : YUV
Chroma subsampling : 4:2:0
Bit depth : 8 bits
Scan type : Progressive
Bits/(Pixel*Frame) : 0.119
Stream size : 3.01 GiB (92%)
Language : English
Default : Yes
Forced : No
Color range : Limited
Color primaries : BT.709
Transfer characteristics : BT.709
Matrix coefficients : BT.709

Audio
ID : 2
Format : AC-3
Format/Info : Audio Coding 3
Commercial name : Dolby Digital
Codec ID : A_AC3
Duration : 1 h 34 min
Bit rate mode : Constant
Bit rate : 384 kb/s
Channel(s) : 6 channels
Channel layout : L R C LFE Ls Rs
Sampling rate : 48.0 kHz
Frame rate : 31.250 FPS (1536 SPF)
Bit depth : 16 bits
Compression mode : Lossy
Stream size : 259 MiB (8%)
Title : FRENCH AC3
Language : French
Service kind : Complete Main
Default : Yes
Forced : No

Menu
00:00:00.000 : en:1
00:13:19.400 : en:2
00:30:01.920 : en:3
00:45:34.840 : en:4
00:59:53.520 : en:5
01:13:58.640 : en:6
01:30:04.280 : en:7




Screenshots

Photo de famille (2018)

Photo de famille (2018)

Photo de famille (2018)