Police Academy 2: Their First Assignment (1985)

Posted By: Tavaz
1080p (FullHD) / BDRip IMDb
Police Academy 2: Their First Assignment (1985)

Police Academy 2: Their First Assignment (1985)
BluRay Remux | MKV | 1920x1080 | English | H264 @ 18839 kbps | DTS | 1 h 27 min | 12.3 GiB
Subtitles: Swedish, Portuguese, Finnish, Danish, German, English, Japanese, French, Norwegian, Spanish
Genre: Comedy, Crime



7a877238f1d844a6af5b842c8817351b.mkv (12.3 GB)



General
Complete name : ./7a877238f1d844a6af5b842c8817351b.mkv
Format : Matroska
Format version : Version 4 / Version 2
File size : 12.3 GiB
Duration : 1 h 27 min
Overall bit rate mode : Variable
Overall bit rate : 20.2 Mb/s
Encoded date : UTC 2017-04-08 21:51:27
Writing application : mkvmerge v10.0.0 ('To Drown In You') 64bit
Writing library : libebml v1.3.4 + libmatroska v1.4.5

Video
ID : 1
Format : AVC
Format/Info : Advanced Video Codec
Format profile : High@L4
Format settings : CABAC / 2 Ref Frames
Format settings, CABAC : Yes
Format settings, RefFrames : 2 frames
Codec ID : V_MPEG4/ISO/AVC
Duration : 1 h 27 min
Bit rate mode : Variable
Bit rate : 18.8 Mb/s
Width : 1 920 pixels
Height : 1 080 pixels
Display aspect ratio : 16:9
Frame rate mode : Constant
Frame rate : 23.976 (24000/1001) FPS
Color space : YUV
Chroma subsampling : 4:2:0
Bit depth : 8 bits
Scan type : Progressive
Bits/(Pixel*Frame) : 0.379
Stream size : 11.5 GiB (93%)
Default : Yes
Forced : No

Audio
ID : 2
Format : DTS
Format/Info : Digital Theater Systems
Format profile : MA / Core
Mode : 16
Format settings, Endianness : Big
Codec ID : A_DTS
Duration : 1 h 27 min
Bit rate mode : Variable / Constant
Bit rate : 1 052 kb/s / 768 kb/s
Channel(s) : 1 channel
Channel positions : Front: C
Sampling rate : 48.0 kHz
Frame rate : 93.750 FPS (512 SPF)
Bit depth : 24 bits
Compression mode : Lossless / Lossy
Stream size : 656 MiB (5%)
Title : DTS-HD MA 1.0
Language : English
Default : Yes
Forced : No

Text #1
ID : 3
Format : PGS
Codec ID : S_HDMV/PGS
Codec ID/Info : Picture based subtitle format used on BDs/HD-DVDs
Duration : 1 h 25 min
Bit rate : 34.4 kb/s
Count of elements : 2250
Stream size : 21.0 MiB (0%)
Title : English (SDH)
Language : English
Default : Yes
Forced : No

Text #2
ID : 4
Format : PGS
Codec ID : S_HDMV/PGS
Codec ID/Info : Picture based subtitle format used on BDs/HD-DVDs
Duration : 1 h 26 min
Bit rate : 24.8 kb/s
Count of elements : 1956
Stream size : 15.3 MiB (0%)
Title : French
Language : French
Default : No
Forced : No

Text #3
ID : 5
Format : PGS
Codec ID : S_HDMV/PGS
Codec ID/Info : Picture based subtitle format used on BDs/HD-DVDs
Duration : 1 h 26 min
Bit rate : 33.0 kb/s
Count of elements : 2198
Stream size : 20.4 MiB (0%)
Title : German (SDH)
Language : German
Default : No
Forced : No

Text #4
ID : 6
Format : PGS
Codec ID : S_HDMV/PGS
Codec ID/Info : Picture based subtitle format used on BDs/HD-DVDs
Duration : 1 h 26 min
Bit rate : 30.3 kb/s
Count of elements : 1972
Stream size : 18.8 MiB (0%)
Title : Spanish (Castilian)
Language : Spanish
Default : No
Forced : No

Text #5
ID : 7
Format : PGS
Codec ID : S_HDMV/PGS
Codec ID/Info : Picture based subtitle format used on BDs/HD-DVDs
Duration : 1 h 26 min
Bit rate : 26.4 kb/s
Count of elements : 1910
Stream size : 16.4 MiB (0%)
Title : Spanish (Latin American)
Language : Spanish
Default : No
Forced : No

Text #6
ID : 8
Format : PGS
Codec ID : S_HDMV/PGS
Codec ID/Info : Picture based subtitle format used on BDs/HD-DVDs
Duration : 1 h 26 min
Bit rate : 30.8 kb/s
Count of elements : 1974
Stream size : 19.1 MiB (0%)
Title : Portuguese (Brazilian)
Language : Portuguese
Default : No
Forced : No

Text #7
ID : 9
Format : PGS
Codec ID : S_HDMV/PGS
Codec ID/Info : Picture based subtitle format used on BDs/HD-DVDs
Duration : 1 h 26 min
Bit rate : 24.7 kb/s
Count of elements : 1594
Stream size : 15.3 MiB (0%)
Title : Danish
Language : Danish
Default : No
Forced : No

Text #8
ID : 10
Format : PGS
Codec ID : S_HDMV/PGS
Codec ID/Info : Picture based subtitle format used on BDs/HD-DVDs
Duration : 1 h 26 min
Bit rate : 28.5 kb/s
Count of elements : 1754
Stream size : 17.6 MiB (0%)
Title : Finnish
Language : Finnish
Default : No
Forced : No

Text #9
ID : 11
Format : PGS
Codec ID : S_HDMV/PGS
Codec ID/Info : Picture based subtitle format used on BDs/HD-DVDs
Duration : 1 h 26 min
Bit rate : 19.7 kb/s
Count of elements : 1270
Stream size : 12.2 MiB (0%)
Title : Norwegian
Language : Norwegian
Default : No
Forced : No

Text #10
ID : 12
Format : PGS
Codec ID : S_HDMV/PGS
Codec ID/Info : Picture based subtitle format used on BDs/HD-DVDs
Duration : 1 h 26 min
Bit rate : 20.1 kb/s
Count of elements : 1358
Stream size : 12.4 MiB (0%)
Title : Swedish
Language : Swedish
Default : No
Forced : No

Text #11
ID : 13
Format : PGS
Codec ID : S_HDMV/PGS
Codec ID/Info : Picture based subtitle format used on BDs/HD-DVDs
Duration : 1 h 23 min
Bit rate : 20.3 kb/s
Count of elements : 2204
Stream size : 12.1 MiB (0%)
Title : Japanese
Language : Japanese
Default : No
Forced : No

Menu
00:00:00.000 : en:Bad hood (Credits)
00:06:53.830 : en:Rookie patrol
00:12:17.362 : en:Not a full deck
00:16:46.297 : en:Dynamic duos
00:25:00.999 : en:A 211 at 302
00:29:06.161 : en:"Caring is a crime"
00:30:43.300 : en:Bargain shopping
00:32:32.951 : en:Virgin mission
00:34:43.206 : en:Fresh and fruity
00:37:49.809 : en:Extreme makeover
00:45:56.587 : en:Kung Fu cops
00:48:09.678 : en:Tango and bash
00:50:48.629 : en:Getting the shaft
00:54:06.493 : en:Guns and roses
00:57:22.022 : en:Stir Fry
00:59:37.491 : en:Clean sweep
01:03:59.127 : en:Undercover work
01:08:13.548 : en:Family feud
01:10:01.155 : en:Mister microphone
01:15:25.312 : en:Zoo helpers
01:22:18.058 : en:Partners for life
01:23:56.990 : en:End Credits





Police Academy 2: Their First Assignment (1985)


Police Academy 2: Their First Assignment (1985)


Police Academy 2: Their First Assignment (1985)


Police Academy 2: Their First Assignment (1985)


Police Academy 2: Their First Assignment (1985)