Channel 5 - Pompeii's Final Hours: New Evidence (2018)

Posted By: notbanned
720p (HD) / HDTV
Channel 5 - Pompeii's Final Hours: New Evidence (2018)

Channel 5 - Pompeii's Final Hours: New Evidence (2018)
HDTV | 1280x720 | .MP4/AVC @ 1822 Kbps | 3x~45min | 1.82 GiB
Audio: English AAC 160 kbps, 2 channels | Subs: None
Genre: Documentary

Exploring life in Pompeii during the final days of the doomed city.
Episode 1
Historian Bettany Hughes, archaeologist Raksha Dave and John Sergeant reveal fresh evidence surrounding the volcano's eruption. They begin on October 22, 79AD, two days before Pompeii is destroyed, and piece together the final hours of the doomed city. Raksha joins a live dig, and John visits nearby Naples to find out how the Roman way of life has survived for 2,000 years.

Episode 2
Bettany Hughes, John Sergeant and Raksha Dave investigate what happened on the eve of the eruption, with John diving under the streets of Naples to find the extraordinary remains of one of the wonders of the ancient world - the Aqua Augusta. Raksha also climbs into the crater of Vesuvius to uncover what could have been happening inside the volcano in the fateful moments before the eruption.

Episode 3
Historian Bettany Hughes, archaeologist Raksha Dave and John Sergeant describe what happened when Vesuvius, which had lain dormant for 700 years, finally erupted, unleashing its full horror on Pompeii and killing everyone who remained. Bettany tries to understand why so many stayed behind, John retraces the route of Pliny the Elder as he tried in vain to get his fleet to Pompeii to pick up survivors and Raksha uses scientific analysis to solve the mystery of some of the city's most famous skeletons.

General
Complete name : Pompeiis.Final.Hours.New.Evidence.Part1.720p.mp4
Format : MPEG-4
Format profile : Base Media / Version 2
Codec ID : mp42 (isom/iso2/avc1/mp41)
File size : 642 MiB
Duration : 45 min 7 s
Overall bit rate mode : Variable
Overall bit rate : 1 988 kb/s

Video
ID : 1
Format : AVC
Format/Info : Advanced Video Codec
Format profile : High@L4.1
Format settings, CABAC : Yes
Format settings, ReFrames : 4 frames
Codec ID : avc1
Codec ID/Info : Advanced Video Coding
Duration : 45 min 7 s
Bit rate : 1 822 kb/s
Width : 1 280 pixels
Height : 720 pixels
Display aspect ratio : 16:9
Frame rate mode : Variable
Frame rate : 25.000 FPS
Minimum frame rate : 6.250 FPS
Maximum frame rate : 25.000 FPS
Color space : YUV
Chroma subsampling : 4:2:0
Bit depth : 8 bits
Scan type : Progressive
Bits/(Pixel*Frame) : 0.079
Stream size : 588 MiB (92%)
Writing library : x264 core 142 r2479 dd79a61
Encoding settings : cabac=1 / ref=1 / deblock=1:-1:-1 / analyse=0x3:0x113 / me=hex / subme=2 / psy=1 / psy_rd=1.00:0.15 / mixed_ref=0 / me_range=16 / chroma_me=1 / trellis=0 / 8x8dct=1 / cqm=0 / deadzone=21,11 / fast_pskip=1 / chroma_qp_offset=0 / threads=6 / lookahead_threads=2 / sliced_threads=0 / nr=0 / decimate=1 / interlaced=0 / bluray_compat=0 / constrained_intra=0 / bframes=3 / b_pyramid=2 / b_adapt=1 / b_bias=0 / direct=1 / weightb=1 / open_gop=0 / weightp=1 / keyint=250 / keyint_min=25 / scenecut=40 / intra_refresh=0 / rc_lookahead=10 / rc=crf / mbtree=1 / crf=21.0 / qcomp=0.60 / qpmin=0 / qpmax=69 / qpstep=4 / vbv_maxrate=62500 / vbv_bufsize=78125 / crf_max=0.0 / nal_hrd=none / filler=0 / ip_ratio=1.40 / aq=1:1.00
Encoded date : UTC 2018-06-04 00:46:46
Tagged date : UTC 2018-06-04 00:46:46
Color range : Limited
Color primaries : BT.709
Transfer characteristics : BT.709
Matrix coefficients : BT.709

Audio
ID : 2
Format : AAC
Format/Info : Advanced Audio Codec
Format profile : LC
Codec ID : 40
Duration : 45 min 7 s
Bit rate mode : Variable
Bit rate : 160 kb/s
Channel(s) : 2 channels
Channel positions : Front: L R
Sampling rate : 48.0 kHz
Frame rate : 46.875 FPS (1024 spf)
Compression mode : Lossy
Stream size : 51.7 MiB (8%)
Title : Stereo / Stereo
Language : English
Default : Yes
Alternate group : 1
Encoded date : UTC 2018-06-04 00:46:46
Tagged date : UTC 2018-06-04 00:46:46


Screenshots:

Channel 5 - Pompeii's Final Hours: New Evidence (2018)

Channel 5 - Pompeii's Final Hours: New Evidence (2018)

Channel 5 - Pompeii's Final Hours: New Evidence (2018)

Channel 5 - Pompeii's Final Hours: New Evidence (2018)