Pork Pie (2017)

Posted By: JohnSmith
Pork Pie (2017)

Pork Pie (2017)
BDRip | MKV / AVC@870 kb/s | 720x302 | 1h 45mn | 750 MB | English: AC3, 128 kb/s (2 ch)
BRRip | MKV / AVC@1410 kb/s | 720x304 | 1h 45mn | 1.36 GB | English: AC3, 448 kb/s (6 ch)
BDRip 720p | MKV / AVC@5500 kb/s | 1280x536 | 1h 45mn | 5.05 GB
English: DTS, 1509 kb/s (6 ch) | Subtitles: English
BDRip 1080p | MKV / AVC@11.5 Mb/s | 1920x804 | 1h 45mn | 9.34 GB
English: DTS, 1509 kb/s (6 ch) | Subtitles: English
Genre: Action | Comedy | Crime

Pork Pie tracks the escapades of a trio of accidental outlaws as they travel the length of the New Zealand in a yellow mini, protesting conformity and chasing lost love, with a posse of cops and a media frenzy hot in their pursuit.




General
Unique ID : 241174680495726279046967681318707412305 (0xB5708DCC5B1F99848F70D0B72BAE3D51)
Complete name : A:\Pork.Pie.2017.BDRip.mkv
Format : Matroska
Format version : Version 4 / Version 2
File size : 750 MiB
Duration : 1 h 45 min
Overall bit rate : 998 kb/s
Movie name : Pork.Pie.2017.720p.BluRay.x264.DTS-FGT
Encoded date : UTC 2017-05-28 16:49:51
Writing application : mkvmerge v8.3.0 ('Over the Horizon') 64bit
Writing library : libebml v1.3.1 + libmatroska v1.4.2

Video
ID : 1
Format : AVC
Format/Info : Advanced Video Codec
Format profile : High@L3.1
Format settings, CABAC : Yes
Format settings, ReFrames : 4 frames
Codec ID : V_MPEG4/ISO/AVC
Duration : 1 h 45 min
Bit rate : 868 kb/s
Width : 720 pixels
Height : 302 pixels
Display aspect ratio : 2.40:1
Frame rate mode : Constant
Frame rate : 23.976 (24000/1001) FPS
Color space : YUV
Chroma subsampling : 4:2:0
Bit depth : 8 bits
Scan type : Progressive
Bits/(Pixel*Frame) : 0.167
Stream size : 652 MiB (87%)
Writing library : x264 core 148 r2708 86b7198
Encoding settings : cabac=1 / ref=3 / deblock=1:0:0 / analyse=0x3:0x113 / me=hex / subme=7 / psy=1 / psy_rd=1.00:0.00 / mixed_ref=1 / me_range=16 / chroma_me=1 / trellis=1 / 8x8dct=1 / cqm=0 / deadzone=21,11 / fast_pskip=1 / chroma_qp_offset=-2 / threads=9 / lookahead_threads=1 / sliced_threads=0 / nr=0 / decimate=1 / interlaced=0 / bluray_compat=0 / constrained_intra=0 / bframes=3 / b_pyramid=2 / b_adapt=1 / b_bias=0 / direct=1 / weightb=1 / open_gop=0 / weightp=2 / keyint=240 / keyint_min=24 / scenecut=40 / intra_refresh=0 / rc_lookahead=40 / rc=crf / mbtree=1 / crf=19.0 / qcomp=0.60 / qpmin=0 / qpmax=69 / qpstep=4 / vbv_maxrate=17500 / vbv_bufsize=17500 / crf_max=0.0 / nal_hrd=none / filler=0 / ip_ratio=1.40 / aq=1:1.00
Default : Yes
Forced : No
Color range : Limited
Color primaries : BT.709
Transfer characteristics : BT.709
Matrix coefficients : BT.709

Audio
ID : 2
Format : AC-3
Format/Info : Audio Coding 3
Format settings, Endianness : Big
Codec ID : A_AC3
Duration : 1 h 45 min
Bit rate mode : Constant
Bit rate : 128 kb/s
Channel(s) : 2 channels
Channel positions : Front: L R
Sampling rate : 48.0 kHz
Frame rate : 31.250 FPS (1536 spf)
Bit depth : 16 bits
Compression mode : Lossy
Delay relative to video : -5 ms
Stream size : 96.1 MiB (13%)
Service kind : Complete Main
Default : Yes
Forced : No





General
Unique ID : 213467428201582846988103234591163459972 (0xA09854CA5740C1148628E7CF3784A984)
Complete name : A:\Pork.Pie.2017.BRRip.mkv
Format : Matroska
Format version : Version 4 / Version 2
File size : 1.36 GiB
Duration : 1 h 45 min
Overall bit rate : 1 859 kb/s
Movie name : Pork.Pie.2017.720p.BluRay.x264.DTS-FGT
Encoded date : UTC 2017-05-28 16:47:10
Writing application : mkvmerge v8.3.0 ('Over the Horizon') 64bit
Writing library : libebml v1.3.1 + libmatroska v1.4.2

Video
ID : 1
Format : AVC
Format/Info : Advanced Video Codec
Format profile : Baseline@L3.1
Format settings, CABAC : No
Format settings, ReFrames : 1 frame
Codec ID : V_MPEG4/ISO/AVC
Duration : 1 h 45 min
Bit rate : 1 409 kb/s
Width : 720 pixels
Height : 304 pixels
Display aspect ratio : 2.35:1
Frame rate mode : Constant
Frame rate : 23.976 (24000/1001) FPS
Color space : YUV
Chroma subsampling : 4:2:0
Bit depth : 8 bits
Scan type : Progressive
Bits/(Pixel*Frame) : 0.268
Stream size : 1.03 GiB (76%)
Writing library : x264 core 148 r2708 86b7198
Encoding settings : cabac=0 / ref=1 / deblock=1:0:0 / analyse=0x1:0x111 / me=hex / subme=2 / psy=1 / psy_rd=1.00:0.00 / mixed_ref=0 / me_range=16 / chroma_me=1 / trellis=0 / 8x8dct=0 / cqm=0 / deadzone=21,11 / fast_pskip=1 / chroma_qp_offset=0 / threads=9 / lookahead_threads=2 / sliced_threads=0 / nr=0 / decimate=1 / interlaced=0 / bluray_compat=0 / constrained_intra=0 / bframes=0 / weightp=0 / keyint=240 / keyint_min=24 / scenecut=40 / intra_refresh=0 / rc_lookahead=10 / rc=2pass / mbtree=1 / bitrate=1409 / ratetol=1.0 / qcomp=0.60 / qpmin=0 / qpmax=69 / qpstep=4 / cplxblur=20.0 / qblur=0.5 / vbv_maxrate=14000 / vbv_bufsize=14000 / nal_hrd=none / filler=0 / ip_ratio=1.40 / aq=1:1.00
Default : Yes
Forced : No
Color range : Limited
Color primaries : BT.709
Transfer characteristics : BT.709
Matrix coefficients : BT.709

Audio
ID : 2
Format : AC-3
Format/Info : Audio Coding 3
Format settings, Endianness : Big
Codec ID : A_AC3
Duration : 1 h 45 min
Bit rate mode : Constant
Bit rate : 448 kb/s
Channel(s) : 6 channels
Channel positions : Front: L C R, Side: L R, LFE
Sampling rate : 48.0 kHz
Frame rate : 31.250 FPS (1536 spf)
Bit depth : 16 bits
Compression mode : Lossy
Delay relative to video : -5 ms
Stream size : 337 MiB (24%)
Title : Surround
Language : English
Service kind : Complete Main
Default : Yes
Forced : No





General
Unique ID : 179043293526588683817043491055763223864 (0x86B27BE9AEA3297D9369341068B07538)
Complete name : C:\Pork.Pie.2017.720p.BluRay.x264.DTS-FGT.mkv
Format : Matroska
Format version : Version 4 / Version 2
File size : 5.05 GiB
Duration : 1 h 45 min
Overall bit rate : 6 889 kb/s
Movie name : Pork.Pie.2017.720p.BluRay.x264.DTS-FGT
Encoded date : UTC 2017-05-28 16:04:42
Writing application : mkvmerge v11.0.0 ('Alive') 64bit
Writing library : libebml v1.3.4 + libmatroska v1.4.5
Cover : Yes
Attachments : cover.jpg / cover_land.jpg / small_cover.jpg / small_cover_land.jpg

Video
ID : 1
Format : AVC
Format/Info : Advanced Video Codec
Format profile : High@L4.1
Format settings, CABAC : Yes
Format settings, ReFrames : 4 frames
Codec ID : V_MPEG4/ISO/AVC
Duration : 1 h 45 min
Bit rate : 5 500 kb/s
Width : 1 280 pixels
Height : 536 pixels
Display aspect ratio : 2.40:1
Frame rate mode : Constant
Frame rate : 23.976 (24000/1001) FPS
Color space : YUV
Chroma subsampling : 4:2:0
Bit depth : 8 bits
Scan type : Progressive
Bits/(Pixel*Frame) : 0.334
Stream size : 3.85 GiB (76%)
Title : Pork.Pie.2017.720p.BluRay.x264.DTS-FGT
Writing library : x264 core 148 r2601 a0cd7d3
Encoding settings : cabac=1 / ref=4 / deblock=1:-2:-2 / analyse=0x3:0x113 / me=umh / subme=7 / psy=1 / psy_rd=1.00:0.15 / mixed_ref=1 / me_range=16 / chroma_me=1 / trellis=1 / 8x8dct=1 / cqm=0 / deadzone=21,11 / fast_pskip=1 / chroma_qp_offset=-3 / threads=24 / lookahead_threads=3 / sliced_threads=0 / nr=0 / decimate=1 / interlaced=0 / bluray_compat=0 / constrained_intra=0 / bframes=3 / b_pyramid=2 / b_adapt=2 / b_bias=0 / direct=3 / weightb=1 / open_gop=0 / weightp=2 / keyint=250 / keyint_min=25 / scenecut=40 / intra_refresh=0 / rc_lookahead=50 / rc=abr / mbtree=1 / bitrate=5500 / ratetol=1.0 / qcomp=0.60 / qpmin=0 / qpmax=69 / qpstep=4 / vbv_maxrate=31250 / vbv_bufsize=31250 / nal_hrd=none / filler=0 / ip_ratio=1.40 / aq=1:1.00
Language : English
Default : Yes
Forced : No

Audio
ID : 2
Format : DTS
Format/Info : Digital Theater Systems
Mode : 16
Format settings, Endianness : Big
Codec ID : A_DTS
Duration : 1 h 45 min
Bit rate mode : Constant
Bit rate : 1 509 kb/s
Channel(s) : 6 channels
Channel positions : Front: L C R, Side: L R, LFE
Sampling rate : 48.0 kHz
Frame rate : 93.750 FPS (512 spf)
Bit depth : 16 bits
Compression mode : Lossy
Stream size : 1.11 GiB (22%)
Title : Pork.Pie.2017.720p.BluRay.x264.DTS-FGT
Language : English
Default : Yes
Forced : No

Text
ID : 3
Format : UTF-8
Codec ID : S_TEXT/UTF8
Codec ID/Info : UTF-8 Plain Text
Language : English
Default : Yes
Forced : No

Menu
00:00:00.000 : en:Chapter 01
00:06:33.101 : en:Chapter 02
00:11:11.962 : en:Chapter 03
00:15:35.684 : en:Chapter 04
00:20:07.789 : en:Chapter 05
00:26:02.435 : en:Chapter 06
00:29:49.954 : en:Chapter 07
00:37:11.229 : en:Chapter 08
00:42:57.241 : en:Chapter 09
00:49:44.106 : en:Chapter 10
00:58:12.655 : en:Chapter 11
01:05:11.407 : en:Chapter 12
01:10:25.512 : en:Chapter 13
01:19:01.194 : en:Chapter 14
01:26:57.128 : en:Chapter 15
01:39:04.146 : en:Chapter 16





General
Unique ID : 230949284326819604912998093032273011887 (0xADBF36D7E83DFE9984C70D4B3A2CE4AF)
Complete name : C:\Pork.Pie.2017.1080p.BluRay.x264.DTS-FGT.mkv
Format : Matroska
Format version : Version 4 / Version 2
File size : 9.34 GiB
Duration : 1 h 45 min
Overall bit rate : 12.7 Mb/s
Movie name : Pork.Pie.2017.1080p.BluRay.x264.DTS-FGT
Encoded date : UTC 2017-05-28 16:38:20
Writing application : mkvmerge v11.0.0 ('Alive') 64bit
Writing library : libebml v1.3.4 + libmatroska v1.4.5
Cover : Yes
Attachments : cover.jpg / cover_land.jpg / small_cover.jpg / small_cover_land.jpg

Video
ID : 1
Format : AVC
Format/Info : Advanced Video Codec
Format profile : High@L4.1
Format settings, CABAC : Yes
Format settings, ReFrames : 4 frames
Codec ID : V_MPEG4/ISO/AVC
Duration : 1 h 45 min
Bit rate : 11.5 Mb/s
Width : 1 920 pixels
Height : 804 pixels
Display aspect ratio : 2.40:1
Frame rate mode : Constant
Frame rate : 23.976 (24000/1001) FPS
Color space : YUV
Chroma subsampling : 4:2:0
Bit depth : 8 bits
Scan type : Progressive
Bits/(Pixel*Frame) : 0.311
Stream size : 8.05 GiB (86%)
Title : Pork.Pie.2017.1080p.BluRay.x264.DTS-FGT
Writing library : x264 core 148 r2694 3b70645
Encoding settings : cabac=1 / ref=4 / deblock=1:-2:-2 / analyse=0x3:0x113 / me=umh / subme=7 / psy=1 / psy_rd=1.00:0.15 / mixed_ref=1 / me_range=16 / chroma_me=1 / trellis=1 / 8x8dct=1 / cqm=0 / deadzone=21,11 / fast_pskip=1 / chroma_qp_offset=-3 / threads=24 / lookahead_threads=3 / sliced_threads=0 / nr=0 / decimate=1 / interlaced=0 / bluray_compat=0 / constrained_intra=0 / bframes=3 / b_pyramid=2 / b_adapt=2 / b_bias=0 / direct=3 / weightb=1 / open_gop=0 / weightp=2 / keyint=250 / keyint_min=25 / scenecut=40 / intra_refresh=0 / rc_lookahead=50 / rc=abr / mbtree=1 / bitrate=11500 / ratetol=1.0 / qcomp=0.60 / qpmin=0 / qpmax=69 / qpstep=4 / vbv_maxrate=31250 / vbv_bufsize=31250 / nal_hrd=none / filler=0 / ip_ratio=1.40 / aq=1:1.00
Language : English
Default : Yes
Forced : No

Audio
ID : 2
Format : DTS
Format/Info : Digital Theater Systems
Mode : 16
Format settings, Endianness : Big
Codec ID : A_DTS
Duration : 1 h 45 min
Bit rate mode : Constant
Bit rate : 1 509 kb/s
Channel(s) : 6 channels
Channel positions : Front: L C R, Side: L R, LFE
Sampling rate : 48.0 kHz
Frame rate : 93.750 FPS (512 spf)
Bit depth : 16 bits
Compression mode : Lossy
Stream size : 1.11 GiB (12%)
Title : Pork.Pie.2017.1080p.BluRay.x264.DTS-FGT
Language : English
Default : Yes
Forced : No

Text
ID : 3
Format : UTF-8
Codec ID : S_TEXT/UTF8
Codec ID/Info : UTF-8 Plain Text
Language : English
Default : Yes
Forced : No

Menu
00:00:00.000 : en:Chapter 01
00:06:33.101 : en:Chapter 02
00:11:11.962 : en:Chapter 03
00:15:35.684 : en:Chapter 04
00:20:07.789 : en:Chapter 05
00:26:02.435 : en:Chapter 06
00:29:49.954 : en:Chapter 07
00:37:11.229 : en:Chapter 08
00:42:57.241 : en:Chapter 09
00:49:44.106 : en:Chapter 10
00:58:12.655 : en:Chapter 11
01:05:11.407 : en:Chapter 12
01:10:25.512 : en:Chapter 13
01:19:01.194 : en:Chapter 14
01:26:57.128 : en:Chapter 15
01:39:04.146 : en:Chapter 16




Screenshots BDRip

Pork Pie (2017)

Pork Pie (2017)

Pork Pie (2017)


Screenshots BRRip

Pork Pie (2017)

Pork Pie (2017)

Pork Pie (2017)


Screenshots BDRip 720p

Pork Pie (2017)

Pork Pie (2017)

Pork Pie (2017)


Screenshots BDRip 1080p

Pork Pie (2017)

Pork Pie (2017)

Pork Pie (2017)